君の元へ
久保田祥平

EXTREME

Level: 8
BPM: 180
Notes: 484

1
口口口口 |----|
口口口口 |----|
口口口口 |----|
口口口口 |----|
2
口口口口 |----|
口口⑤口 |--①-|
口④③口 |②-③-|
口②①口 |④-⑤-|
3
①口③① |①---|
口③口口 |--②-|
②口口② |③---|
口口④口 |--④-|
4
口③口口 |①-②-|
口口②口 |③---|
口①口口
口口口口

④口口④
口口口口
口⑤口口 |④---|
口口口口 |--⑤-|
5
口口口口 |①---|
口②②口 |②---|
⑥口①⑤ |③-④-|
④口口③ |⑤-⑥-|
6
①口口① |①---|
②口口② |②---|
口③③口 |③---|
④口口口 |--④-|
7
①口口① |①---|
口口口口 |--②-|
口②口口
口口口口

口④口④
口口口口
口口口③ |③---|
口口口口 |--④-|
8
口口口口 |--①-|
②④③① |②-③-|
口口口口 |④---|
口⑤⑤口 |⑤---|
9
口①①③ |①---|
②口口口 |②---|
口④④② |③---|
③口口口 |④---|
10
口口口口 |①---|
口①①口 |--②-|
口口口口
口口②口

口口口口
口口⑥口
口⑤④口 |③-④-|
口③口口 |⑤-⑥-|
11
①口③① |①---|
口③口口 |--②-|
②口口② |③---|
口口④口 |--④-|
12
口③口口 |①-②-|
口口②口 |③---|
口①口口
口口口口

④口口④
口口口口
口⑤口口 |④---|
口口口口 |--⑤-|
13
口③③口 |①---|
口②②口 |②---|
口口①口 |③---|
④口口④ |④---|
14
①口口① |①---|
②口口② |②---|
口③③口 |③---|
口口口口 |----|
15
口④口④ |①---|
口①①口 |--②-|
②口口③ |③---|
口口口口 |--④-|
16
口口口口 |--①-|
②④③① |②-③-|
口口口口 |④---|
口⑤⑤口 |⑤---|
17
口①①③ |①---|
②口口口 |②---|
口④④② |③---|
③口口口 |④---|
18
口口口口 |①---|
口①①口 |----|
口口口口 |----|
口口口口 |----|
19
④口口口 |①---|
④口口口 |②-③-|
口③②口 |--④-|
①口⑤⑤ |--⑤-|
20
口③③口 |--①-|
⑥口②口 |②-③-|
口口⑤① |--④-|
④口口口 |⑤-⑥-|
21
⑤③⑤① |①---|
口②口① |②-③-|
口口口口 |--④-|
④口④口 |--⑤-|
22
口口口口 |--①-|
口①口① |--②-|
②口②口 |----|
口口口口 |----|
23
④口口口 |①---|
④口口口 |②-③-|
口③②口 |--④-|
①口⑤⑤ |--⑤-|
24
口③③口 |--①-|
⑥口②口 |②-③-|
口口⑤① |--④-|
④口口口 |⑤-⑥-|
25
口口口① |①---|
④口④① |----|
口③口③ |--②-|
②口②口 |③-④-|
26
口①②口 |--①-|
口口口口 |②---|
口口口口 |③---|
口③③口 |----|
27
③口口③ |①---|
口①口口 |②---|
口②①口 |③---|
口④④口 |④---|
28
口②②口 |①---|
口口口口 |②---|
口④①口 |③---|
口口口③ |④---|
29
口口口① |①---|
②口②① |②---|
口④③口 |③---|
④口口口 |④---|
30
④口口口 |①---|
口④口口 |②---|
②口口① |③---|
口口③口 |④---|
31
口口②② |①---|
口口口③ |②---|
④口③① |③---|
口④口口 |④---|
32
④④口口 |①---|
口口口口 |②---|
口①③口 |③---|
②口口② |④---|
33
口口①① |①---|
口②④口 |②---|
口口③口 |③---|
口口口口 |④---|
34
口口口口 |①---|
②口口④ |②---|
①口口③ |③---|
口口口口 |④---|
35
③口口③ |①---|
口②口口 |②---|
口④①口 |③---|
口①④口 |④---|
36
口②②口 |①---|
口口口口 |②---|
口④①口 |③---|
口③④口 |④---|
37
口口口① |①---|
②口②① |②---|
口④③口 |③---|
④口口口 |④---|
38
④口口口 |①---|
口④口口 |②---|
①口口② |③---|
口口③口 |④---|
39
口②②口 |①---|
口④口③ |②---|
③口①口 |③---|
口口④口 |④---|
40
④④口口 |①---|
口口口口 |②---|
口①③口 |③---|
②口口② |④---|
41
口口①① |①---|
④②口口 |②---|
③口口口 |③---|
口口口口 |④---|
42
口口口口 |①---|
口口②④ |②---|
口口①③ |③---|
口口口口 |④---|
43
①口口② |①---|
口③③口 |②---|
口口⑤口 |③---|
口④口口 |④-⑤-|
44
①⑤④① |--①-|
口③口口 |--②-|
②口口② |③-④-|
口口口口 |⑤---|
45
②口口① |①---|
⑤③③⑤ |②---|
口口口口 |③---|
④口口④ |④-⑤-|
46
⑤口口⑤ |--①-|
口口口口 |--②-|
②④③② |③-④-|
口①①口 |⑤---|
47
口①①口 |①---|
⑥②②⑥ |②---|
③口口④ |③-④-|
口⑤口口 |⑤-⑥-|
48
口①②口 |--①-|
口⑤④口 |②---|
口③口口 |③-④-|
口口口口 |⑤---|
49
口⑤口⑥ |①---|
②口口口 |②---|
口口③④ |③-④-|
①①口口 |⑤-⑥-|
50
口⑤口口 |--①-|
④口③口 |②---|
口②口口 |③-④-|
①口口口 |⑤---|
51
口口口② |①---|
口口口口 |②---|
口⑤④口 |③---|
③口口① |④-⑤-|
52
②②口口 |--①-|
①①口口 |--②-|
口口⑤④ |③-④-|
口口③口 |⑤---|
53
口⑥口⑤ |①---|
口③④口 |②---|
②口口口 |③-④-|
口①口口 |⑤-⑥-|
54
口口口口 |--①-|
①口口① |--②-|
②⑤④② |③-④-|
口③口口 |⑤---|
55
①⑥口① |①---|
口②口口 |②---|
口口口④ |③-④-|
口⑤③口 |⑤-⑥-|
56
口口⑤④ |--①-|
口③③口 |--②-|
②②口口 |--③-|
①口口口 |④-⑤-|
57
⑤①口⑥ |①---|
口口口口 |②---|
口口口口 |③-④-|
③口②④ |⑤-⑥-|
58
口口口口 |----|
口口⑤口 |--①-|
口④③口 |②-③-|
口②①口 |④-⑤-|
59
①①③① |①---|
口③口口 |--②-|
②口口② |③---|
口口④口 |--④-|
60
口③口口 |①-②-|
口口②口 |③---|
口①口口
口口口口

④口口④
④口口④
口⑤口口 |④---|
口口口口 |--⑤-|
61
口口口口 |①---|
口②②口 |②---|
⑥口①⑤ |③-④-|
④口口③ |⑤-⑥-|
62
①口口① |①---|
②③③② |②---|
口③③口 |③---|
④口口口 |--④-|
63
①口①① |①---|
口口口口 |--②-|
口②口口
口口口口

口④口④
口口口口
口口口③ |③---|
口口口口 |--④-|
64
口口口口 |--①-|
②④③① |②-③-|
口口口口 |④---|
口⑤⑤口 |⑤---|
65
口①①③ |①---|
②口口口 |②---|
口④④② |③---|
③口口口 |④---|
66
口①①口 |①---|
口①①口 |--②-|
口口口口
口口②口

口口口口
口口⑥口
口⑤④口 |③-④-|
口③口口 |⑤-⑥-|
67
①①③① |①---|
口③口口 |--②-|
②口口② |③---|
口口④口 |--④-|
68
口③口口 |①-②-|
口口②口 |③---|
口①口口
口口口口

④口口④
④口口④
口⑤口口 |④---|
口口口口 |--⑤-|
69
口口口口 |①---|
口②②口 |②---|
⑥口①⑤ |③-④-|
④口口③ |⑤-⑥-|
70
①口口① |①---|
②③③② |②---|
口③③口 |③---|
④口口口 |--④-|
71
①口①① |①---|
口口口口 |--②-|
口②口口
口口口口

口④口④
口口口口
口口口③ |③---|
口口口口 |--④-|
72
口口口口 |--①-|
②④③① |②-③-|
口口口口 |④---|
口⑤⑤口 |⑤---|
73
口①①③ |①---|
②口口口 |②---|
口④④② |③---|
③口口口 |④---|
74
口①①口 |①---|
口①①口 |----|
口口口口
口口口口

④④④④
③口口②
③口口② |②-③-|
口口口口 |--④-|


不確定度: 0

最終更新:2013年05月16日 16:30