キミ記念日~生まれて来てくれてアリガトウ。~
ソナーポケット

EXTREME

Level: 8
BPM: 127
Notes: 488

1
口口口口 |----|
口口口口 |----|
口口口口 |----|
口口口口 |----|
2
口口④口 |----|
口③口口 |--①-|
口⑤②口 |②-③-|
口①口口 |④-⑤-|
3
①③③① |①---|
口口口口 |--②-|
口口②口 |③---|
口口④口 |--④-|
4
⑤口②④ |①-②-|
③①口口 |③-④-|
⑦口口⑥ |⑤-⑥-|
口口⑧口 |⑦-⑧-|
5
口③③口 |①---|
口①①口 |--②-|
口口②口 |③---|
口口④口 |--④-|
6
口口⑤口 |①-②-|
①口②⑤ |③-④-|
⑤④③口 |⑤---|
⑥⑤口口 |--⑥-|
7
口口⑤口 |①②③④|
②③①口 |⑤-⑥⑦|
⑦④口口
口口⑥口

口⑨口口
口⑩⑩⑧
口口口口 |-⑧⑨-|
口口口口 |⑩---|
8
口⑨⑤口 |①②③④|
②⑩⑩⑧ |⑤-⑥⑦|
⑦④③① |-⑧⑨-|
口口⑥口 |⑩---|
9
口口口口 |--①-|
②口口口 |②-③-|
口口口口
①口③口

口口口口
口口④口
口⑤口⑥ |④-⑤-|
⑦口口⑦ |⑥-⑦-|
10
③⑤⑤③ |--①-|
口①②口 |②-③-|
④④④④ |④-⑤-|
⑥⑥⑥⑥ |⑥---|
11
①口口① |①---|
①口口① |②---|
口②②口
口口口口

④③口④
口口③口
口⑤⑤口 |③---|
口口口口 |④-⑤-|
12
口①①口 |----|
口口②口 |----|
口③③口 |①-②-|
口口④口 |③-④-|
13
④②③④ |①---|
口③②口 |②---|
①口口① |③---|
口⑤⑤口 |④-⑤-|
14
口③③口 |----|
口口②④ |--①②|
⑤①口口 |③-④-|
口口口⑥ |⑤-⑥-|
15
④口口口 |----|
口口口口 |----|
口口①③ |①-②-|
口②口口 |③-④-|
16
口口口口 |①---|
口①①口 |--②-|
口②口口
口口②口

口口口口
口④③口
口口口口 |--③-|
⑤口口⑤ |④-⑤-|
17
口口口口 |----|
口口口口 |----|
口②口口 |--①-|
口①③口 |②-③-|
18
口口②口 |①---|
④④①① |②-③-|
口口口口 |--④-|
口③口口 |----|
19
口③口口 |----|
②口口口 |--①-|
口口④口 |--②-|
口口口① |③-④-|
20
口口②口 |①-②-|
口③①① |③-④-|
⑤口口④ |--⑤-|
口④⑤口 |----|
21
口⑤口口 |----|
口②口② |--①-|
④口④口 |②-③-|
①③①③ |④-⑤-|
22
口口①口 |①---|
②③口口 |--②③|
口口口口
口口口口

口口⑦口
口口④口
口⑥口口 |④-⑤-|
口口⑤口 |⑥-⑦-|
23
②①口② |①---|
口口口口 |--②-|
口口口口
口口口口

口④④口
口口口口
口口口口 |③---|
③口口③ |--④-|
24
口⑤⑥口 |①-②-|
口⑥⑤口 |③-④-|
③④④③ |⑤---|
②①①② |⑥---|
25
口口②② |----|
⑤④③口 |--①-|
口口口口 |②-③-|
①口口口 |④-⑤-|
26
口②口口 |①---|
口口口口 |②-③-|
④④①① |--④-|
口口③③ |----|
27
口口口② |----|
⑤④③口 |--①-|
口口口口 |②-③-|
①口口口 |④-⑤-|
28
口②口口 |①---|
口口口口 |②-③-|
④④①① |--④-|
口口③③ |----|
29
口⑤口口 |----|
口②口② |--①-|
④口④口 |②-③-|
①③①③ |④-⑤-|
30
口口①口 |①---|
②②口口 |--②-|
口口口口
口口口口

口口⑥口
口口③③
口⑤口口 |③-④-|
口口④口 |⑤-⑥-|
31
①②口① |①--②|
④口②④ |--③-|
口⑤⑥口 |④-⑤⑥|
③⑦口③ |--⑦-|
32
③①③① |①-②-|
②④②④ |③-④-|
口⑤⑤口 |⑤---|
⑥口口⑥ |⑥---|
33
②③⑤② |----|
口④口口 |--①-|
口口④口 |②-③-|
口①口口 |④-⑤-|
34
③④⑥③ |①---|
①⑤口① |--②-|
①口⑤① |③-④-|
口②口口 |⑤-⑥-|
35
②口口③ |①---|
①⑥口① |②-③-|
①口⑤① |--④-|
口④口口 |⑤-⑥-|
36
口口口口 |①---|
口口①口 |----|
口口口口 |----|
口②口口 |--②-|
37
④口口④ |①-②-|
①③③① |③-④-|
口口口口 |⑤---|
⑤⑥②⑤ |--⑥-|
38
④口口④ |①-②-|
①③③① |③-④-|
口口口口
口口②口

口口口口
⑥口口口
口口口口 |⑤---|
⑤口口⑤ |--⑥-|
39
口口口口 |①---|
口口口① |--②-|
口口口口
②口口②

口口口口
⑤⑤⑥⑥
③③④④ |③-④-|
口口口口 |⑤-⑥-|
40
①①①① |①---|
口口口口 |--②-|
口口口口
②口口口

④口口⑤
口口口口
口口口口 |③-④-|
口⑥⑥③ |⑤-⑥-|
41
③③③③ |①---|
①①①① |--②-|
口口口口 |③---|
②口④② |--④-|
42
⑤口②④ |①-②-|
③①口口 |③-④-|
⑦口口⑥ |⑤-⑥-|
口⑧⑧口 |⑦-⑧-|
43
③③③③ |①---|
①①①① |--②-|
口口口口 |③---|
②口④② |--④-|
44
口口⑤口 |①-②-|
①口②⑤ |③-④-|
⑤④③口 |⑤---|
口⑤口⑥ |--⑥-|
45
①口口口 |①②③④|
⑤③②⑥ |⑤-⑥⑦|
⑦口④口
口口口口

口⑨口口
口口⑩口
口口⑩口 |-⑧⑨-|
口口⑩⑧ |⑩---|
46
③口口⑦ |①②③④|
口⑤⑥口 |⑤-⑥⑦|
口口口②
①⑤口④

口⑩⑩口
⑩口口⑩
口⑨⑨口 |-⑧⑨-|
⑧口口口 |⑩---|
47
口口口口 |--①-|
口口②口 |②-③-|
口口口口
①口③口

口④口口
口口⑦口
⑥⑦口⑤ |④-⑤-|
口口口口 |⑥-⑦-|
48
⑥②②⑥ |--①-|
①③口① |②-③-|
④口③④ |④-⑤-|
⑤⑦⑦⑤ |⑥-⑦-|
49
③③③③ |①---|
①①①① |--②-|
口口口口 |③---|
②口④② |--④-|
50
⑤口②④ |①-②-|
③①口口 |③-④-|
⑦口口⑥ |⑤-⑥-|
口⑧⑧口 |⑦-⑧-|
51
③③③③ |①---|
①①①① |--②-|
口口口口 |③---|
②口④② |--④-|
52
⑤口⑤② |①-②-|
①⑥③⑥ |③-④-|
⑦④⑦口 |⑤-⑥-|
口⑧口⑧ |⑦-⑧-|
53
③口口口 |①---|
口③①口 |②-③-|
口①口口
口口②口

口口⑤④
口口④口
口口口口 |--④-|
口口口口 |--⑤-|
54
口口口口 |①-②-|
口口口口 |③-④-|
①口口④
口②③口

口口口口
口⑦口⑥
⑤⑤口口 |--⑤-|
口口口口 |⑥-⑦-|
55
①②③① |①---|
口③②口 |②---|
口口口口 |③---|
④口口④ |④---|
56
②②③③ |①---|
口口口口 |②-③-|
口①①口
口①①口

口口口口
⑥⑥⑥口
口⑤口口 |④---|
④口口④ |⑤-⑥-|
57
①口①口 |①---|
口口口口 |----|
口口口口 |----|
口口口口 |----|


不確定度: 0

最終更新:2013年08月01日 14:57