No pain, No game
nano

EXTREME

Level: 8
BPM: 190
Notes: 478

1
口口口口 |----|
口口口口 |----|
口口口口 |----|
口口口口 |----|
2
口口口口 |----|
口①口口 |----|
口口口② |--①-|
口口口口 |--②-|
3
口口口口 |----|
口③①口 |①-②-|
口②口口 |--③-|
口④口口 |--④-|
4
口口②口 |--①-|
口⑤③口 |--②-|
④口①口 |--③-|
口口口口 |④-⑤-|
5
口口口口 |----|
口④口① |①-②-|
口口②口 |--③-|
口③口口 |--④-|
6
口④口② |--①-|
口口口口 |--②-|
口口口① |--③-|
口③口口 |--④-|
7
口口口口 |--①-|
口口②口 |②---|
口口①口 |----|
口口口口 |----|
8
②口口口 |----|
口口③② |①---|
③口口① |②---|
①口口口 |③---|
9
③①口③ |①---|
口口口口 |--②-|
口②②口 |③---|
口口口口 |----|
10
口口口口 |----|
口口②口 |----|
口口口口 |①---|
①口口口 |②---|
11
口①口口 |①---|
口口口② |②-③-|
口⑤③口 |--④-|
④口口口 |⑤---|
12
口口口② |----|
口口②口 |----|
①口口口 |①---|
口①口口 |②---|
13
口①②⑤ |①---|
①⑤⑤① |②-③-|
③口口③ |--④-|
口③口④ |⑤---|
14
口口口口 |----|
口口口口 |----|
口口口口 |----|
口口口口 |----|
15
④①口口 |①---|
口口④① |--②-|
口③②口 |--③-|
②口口口 |④---|
16
口口①④ |--①-|
④口口口 |--②-|
③口②① |③---|
口口③口 |④---|
17
⑤①口口 |①---|
口②⑤① |②-③-|
口④③口 |--④-|
③口口口 |⑤---|
18
④④④④ |--①-|
①口口② |--②-|
口口口口 |③---|
口①③③ |④---|
19
口口口口 |①-②-|
①②⑥③ |③-④-|
口⑦口④ |⑤-⑥-|
口①⑤口 |--⑦-|
20
口④口③ |①-②-|
⑤②口⑥ |--③-|
口口⑤口 |④---|
①口口④ |⑤-⑥-|
21
口口①口 |①-②-|
⑥②口口 |③-④-|
口③⑦④ |⑤-⑥-|
口①⑤口 |--⑦-|
22
③口口口 |①-②-|
口④②⑤ |--③-|
口口⑥口 |④-⑤-|
①口口④ |⑥---|
23
口口⑤口 |①-②-|
②口③口 |③-④-|
①⑦口④ |--⑤-|
口③⑥口 |⑥-⑦-|
24
口③口② |--①-|
④①口⑥ |--②-|
口口⑤口 |③-④-|
①口口⑤ |⑤-⑥-|
25
口⑤①口 |①-②-|
口②口口 |③-④-|
③口⑦④ |--⑤-|
口③⑥口 |⑥-⑦-|
26
口口口口 |--①-|
口③①口 |②-③-|
口口⑦⑥ |④-⑤-|
②口⑤④ |⑥-⑦-|
27
口⑥②口 |--①-|
⑤③口口 |②-③-|
①口口口 |④---|
口口④口 |⑤-⑥-|
28
口口口口 |--①-|
口口口① |--②-|
④口③口 |--③-|
口口口② |--④-|
29
口口②④ |--①-|
⑤①③口 |②-③-|
口口⑥口 |④---|
口口口⑥ |⑤-⑥-|
30
口④③口 |--①-|
③②口④ |--②-|
口①口② |--③-|
①口口口 |--④-|
31
口口⑥口 |--①-|
口②③⑤ |②-③-|
口口①口 |④---|
口④口口 |⑤-⑥-|
32
口口口口 |--①-|
①口口口 |--②-|
口③口④ |--③-|
②口口口 |--④-|
33
⑧⑤①口 |①-②-|
口口⑤④ |③-④-|
②⑤⑦口 |⑤-⑥-|
口③⑤⑥ |⑦-⑧-|
34
④②①④ |--①-|
①④④② |--②-|
②③③① |--③-|
③①②③ |--④-|
35
口①①口 |----|
口口口口 |----|
口口口口 |①---|
②口口② |--②-|
36
口口口口 |----|
口①口④ |--①-|
③口②口 |②---|
口口口口 |③-④-|
37
口②②口 |--①-|
口③⑥口 |②-③-|
⑥④④⑥ |④-⑤-|
口⑥⑤① |--⑥-|
38
①口口① |----|
②口口② |①---|
③口口③ |②---|
口口口口 |③---|
39
口口口口 |①---|
口口口口 |----|
口②口口 |②---|
①口口① |----|
40
口①②口 |①---|
口④③④ |--②-|
口口口口 |③---|
口口口口 |--④-|
41
③③③③ |①---|
口口口口 |----|
②口②口 |--②-|
①②①② |--③-|
42
口口口② |----|
①②口口 |----|
口口①② |--①-|
口①口口 |--②-|
43
口②口口 |--①-|
口口③口 |②-③-|
①⑤④口 |--④-|
⑤口口口 |--⑤-|
44
①④口② |--①-|
⑤①②口 |--②-|
口口③口 |--③-|
口口口③ |④-⑤-|
45
口口④口 |--①-|
口⑤②口 |②-③-|
③口口① |--④-|
⑤口口口 |--⑤-|
46
①口口② |--①-|
口口③口 |--②-|
口①②④ |--③-|
口④口③ |--④-|
47
③口③① |----|
口②口口 |①-②-|
口②口④ |--③-|
④口④口 |--④-|
48
口③口② |--①-|
②口③① |--②-|
①③②④ |--③-|
口①口口 |--④-|
49
口口②口 |--①-|
③①口② |②---|
①口②口 |----|
口①口口 |--③-|
50
⑧口①口 |--①-|
口口⑦⑧ |②③④⑤|
⑧②③口 |⑥-⑦-|
⑥④⑤⑦ |--⑧-|
51
口口②口 |--①-|
口③口口 |②-③-|
口④⑤① |--④-|
口口口⑤ |--⑤-|
52
②口④① |--①-|
口②①⑤ |--②-|
口③口口 |--③-|
③口口口 |④-⑤-|
53
③④口口 |----|
④①口口 |①-②-|
①口④② |--③-|
口口②④ |--④-|
54
③④②① |--①-|
口③①② |--②-|
①②④③ |--③-|
②①③口 |--④-|
55
口口②口 |--①-|
口口口② |②---|
①口口口 |----|
口①口口 |----|
56
②口②口 |----|
口口③② |①---|
③口口① |②---|
①口①③ |③---|
57
口①口① |①---|
①②口口 |-②③-|
口口③口 |④---|
口④口口 |----|
58
口口口口 |----|
口口②口 |----|
口口口口 |①---|
①口口口 |②---|
59
口①⑤口 |①---|
①⑤口② |②-③-|
③口口口 |--④-|
口③④口 |⑤---|
60
口口口② |----|
口口②口 |----|
①口口口 |①---|
口①口口 |②---|
61
口①②⑤ |①---|
①⑤⑤① |②-③-|
③口口③ |--④-|
口③口④ |⑤---|
62
①②④③ |----|
⑤⑥⑧⑦ |----|
口口口口 |①②③④|
口口口口 |⑤⑥⑦⑧|
63
口口口口 |①-②-|
⑥口口口 |③-④-|
①⑦②④ |⑤-⑥-|
口①⑤③ |--⑦-|
64
口④口③ |①-②-|
⑤②口⑦ |--③-|
口口⑥口 |④-⑤-|
①口口④ |⑥-⑦-|
65
口口①口 |①-②-|
⑥②口口 |③-④-|
口③⑦④ |⑤-⑥-|
口①⑤口 |--⑦-|
66
③口口口 |①-②-|
口④②⑤ |--③-|
口口⑥口 |④-⑤-|
①口口④ |⑥---|
67
口口⑤口 |①-②-|
②口③口 |③-④-|
①⑦口④ |--⑤-|
口③⑥口 |⑥-⑦-|
68
口④口③ |--①-|
⑤①口⑦ |②-③-|
口口⑥口 |④-⑤-|
②口口⑥ |⑥-⑦-|
69
①⑤口⑥ |①-②-|
口②①口 |③-④-|
③⑥口④ |--⑤-|
口④口口 |--⑥-|
70
口⑤④口 |--①-|
⑥③①⑤ |②-③-|
口口⑥② |④-⑤-|
⑦⑦⑦口 |⑥-⑦-|

不確定度: 0

最終更新:2014年03月09日 17:10