LANA - Answer II -
TOMOSUKE×Jazzin'park

EXTREME

Level: 9
BPM: 165
Notes: 540

1
口口口口 |----|
口口口口 |----|
口口口口 |----|
口口口口 |----|
2
口口口⑦ |①-②-|
①⑤③口 |③-④-|
④②⑥口 |⑤-⑥-|
口口口口 |⑦---|
3
①②③口 |--①②|
⑦⑧⑨⑩ |③-④-|
口⑤口④ |⑤-⑥-|
口口⑥口 |⑦⑧⑨⑩|
4
口口口口 |①-②-|
口口口⑦ |③-④-|
①⑤③口 |⑤-⑥-|
④②⑥口 |⑦---|
5
①③②④ |①②③④|
⑤⑧⑬⑭ |⑤-⑥⑦|
⑪⑫⑥⑦ |⑧-⑨⑩|
口口⑨⑩ |⑪⑫⑬⑭|
6
口①口③ |----|
口口口口 |①---|
③口②口 |②---|
口口口口 |③---|
7
口口口口 |----|
口①口③ |①---|
口口口口 |②---|
③口②口 |③---|
8
口①口③ |----|
口口口口 |①---|
③口②口 |②---|
口口口口 |③---|
9
③①口② |----|
口口口④ |--①-|
②口①③ |②--③|
④口口口 |--④-|
10
口口口⑦ |①-②-|
①⑤③口 |③-④-|
④②⑥口 |⑤-⑥-|
口口口① |⑦---|
11
①②③口 |--①②|
口口口口 |③-④-|
口口口④
口口口口

⑨口口口
⑦⑧⑨⑩
口⑤口口 |⑤-⑥-|
口口⑥口 |⑦⑧⑨⑩|
12
口口口口 |①-②-|
口口口⑦ |③-④-|
①⑤③口 |⑤-⑥-|
④②⑥口 |⑦---|
13
①③②④ |①②③④|
⑤口口口 |⑤-⑥⑦|
口口⑥⑦
口口口口

口口⑬⑭
口⑧口口
⑪⑫口口 |⑧-⑨⑩|
口口⑨⑩ |⑪⑫⑬⑭|
14
口口口口 |①---|
口口③⑥ |②-③-|
④⑤②⑤ |④-⑤-|
①口口口 |⑥---|
15
口③口① |①---|
⑤②⑤④ |②-③-|
口口口口 |④-⑤-|
⑥口口口 |⑥---|
16
口口口口 |①---|
口口口⑥ |②-③-|
①口③口 |④-⑤-|
④⑤②⑤ |⑥---|
17
①④②口 |①---|
⑤③⑤口 |②-③-|
口⑥口⑥ |④-⑤-|
口口口口 |--⑥-|
18
①口③口 |①-②-|
口②口④ |③-④-|
⑤口①口 |⑤---|
口⑥口⑥ |⑥---|
19
口口⑥口 |①-②-|
口⑦④口 |③-④-|
口⑤①③ |⑤-⑥-|
口口②口 |⑦---|
20
口口⑥口 |①---|
④⑤口口 |②-③-|
口口口② |④-⑤-|
口口①③ |⑥---|
21
口口口口 |①-②-|
口⑦⑥口 |③-④-|
口②口④ |⑤-⑥-|
①⑤③口 |⑦---|
22
②口③① |----|
口口口口 |①---|
①③口② |②---|
口口口口 |③---|
23
口①口口 |①-②-|
⑤③②口 |③-④-|
⑥口④⑤ |⑤---|
口口口⑥ |⑥---|
24
②④口③ |①---|
口口口口 |②---|
③口④② |③---|
口①口口 |④---|
25
口口①口 |①--②|
②口③口 |--③-|
口⑥⑤口 |④--⑤|
④口⑦口 |⑥-⑦-|
26
①口口口 |①---|
口口口口 |----|
口口口口 |----|
口口口① |----|
27
口口口口 |----|
口口口口 |----|
口口口口 |----|
口口口口 |----|
28
①口口口 |----|
口口口① |----|
口口口口 |----|
口口口口 |①---|
29
口①①口 |①---|
③⑦④⑥ |--②-|
口⑤⑧② |③-④⑤|
②口口口 |⑥-⑦⑧|
30
口②口口 |①---|
口口口口 |②---|
①口口口
口口②口

口口③口
⑤口口④
④口口⑤ |③---|
口③口口 |④-⑤-|
31
④口口③ |①---|
口①②口 |②---|
口②①口 |③---|
③口口④ |④---|
32
口③②口 |①---|
口①口口 |②-③-|
口口口口
口②③口

口口口口
④⑦⑥⑤
⑤⑥⑦④ |④-⑤-|
口口口口 |⑥-⑦-|
33
③口①④ |①---|
②口口口 |②---|
口口口② |③---|
④①口③ |④---|
34
口口口口 |①---|
①口口① |②-③-|
⑤口口③ |④---|
口②④口 |⑤---|
35
口③口口 |①-②-|
④口口① |--③-|
口口②口 |④---|
口口口口 |----|
36
⑤口口口 |①---|
口口③⑤ |②-③-|
口④①口 |④---|
②口口口 |⑤---|
37
口①①口 |①---|
口口口口 |--②-|
口口口② |----|
②口口口 |----|
38
④口④口 |①---|
口口②口 |----|
口③口③ |②---|
口①①口 |③-④-|
39
口④口④ |----|
口②口② |--①-|
③口③口 |②---|
①口①口 |③-④-|
40
口口口口 |----|
口口口口 |----|
口①口口 |----|
口口口口 |①---|
41
口③①口 |①--②|
口口口② |--③-|
口口③①
口口口口

口口口口
④口口口
口口口⑤ |--④-|
口口口口 |⑤---|
42
①口口口 |①---|
②口口口 |----|
口①口口 |----|
口口口口 |②---|
43
口口口口 |①--②|
口②①口 |--③-|
口口口口 |----|
口③口口 |----|
44
口口口口 |①--②|
①口②口 |--③-|
口④口口 |----|
口口③口 |④---|
45
口口口口 |①--②|
口②①口 |--③-|
口口口口 |----|
口口③口 |----|
46
口①①口 |①---|
口口口口 |--②-|
口口口口
口②②口

口⑥口口
口口口口
口③④⑤ |③-④-|
口口口口 |⑤-⑥-|
47
口口口口 |①--②|
口①③口 |--③-|
口口④口 |④---|
口口②口 |----|
48
口①口口 |①-②-|
③口②口 |③-④-|
⑦⑧④⑦ |⑤-⑥-|
⑤⑥口口 |⑦-⑧-|
49
③④①口 |①-②-|
①②口口 |③-④-|
口口口口
口口口口

口口口口
⑦⑧口⑤
口口口口 |⑤-⑥-|
⑤⑥口口 |⑦-⑧-|
50
口口口⑤ |①-②-|
口口口⑤ |③-④-|
①②口口 |⑤---|
口口③④ |----|
51
口口口口 |①-②-|
口口①口 |③-④-|
③④①⑤ |⑤---|
①②口⑤ |----|
52
口口口① |①---|
口⑥④① |②---|
⑤③②③ |③-④-|
口③口口 |⑤-⑥-|
53
口④②口 |①-②-|
③⑦口① |③-④-|
口口⑥⑤ |--⑤-|
口口口口 |⑥-⑦-|
54
口口口口 |①-②-|
①口口口 |③-④-|
口口口口 |----|
⑤④③② |⑤---|
55
口⑤口⑥ |①-②-|
①③④口 |--③-|
口②③⑤ |④--⑤|
口口①口 |--⑥-|
56
口口①口 |①---|
口口口① |----|
口口口口 |----|
口②②口 |②---|
57
①口口① |①-②-|
口②③④ |③-④-|
⑤⑥⑦⑧ |⑤-⑥-|
口口口口 |⑦-⑧-|
58
口口口口 |①---|
口口口口 |----|
口口口口 |----|
口①①口 |----|
59
口口口口 |----|
口口口口 |----|
口口口口 |①---|
①①①① |----|
60
口①口口 |①-②③|
①⑤③口 |④-⑤-|
⑤②口③
口口④口

口口⑧口
口口口口
口⑨⑥口 |⑥-⑦-|
口⑦口⑥ |⑧-⑨-|
61
口口口口 |①-②-|
②口①③ |③-④⑤|
口口口口
口④口⑤

口口口口
⑨口口口
⑥⑨⑦⑧ |⑥-⑦-|
口口⑧口 |⑧-⑨-|
62
口②③① |①-②③|
口④①⑤ |④-⑤-|
口口口口
口口口口

口口口口
⑧口⑨口
口口口⑦ |⑥-⑦-|
⑥⑥口口 |⑧-⑨-|
63
①①②② |①-②-|
口⑤口口 |③-④⑤|
③③④④ |⑥-⑦-|
⑧口⑥⑦ |⑧---|
64
口口①口 |①-②③|
口③⑤① |④-⑤-|
③口②⑤
口④口口

口⑧口口
口口口口
口⑥⑨口 |⑥-⑦-|
⑥口⑦口 |⑧-⑨-|
65
口口④口 |①-②-|
①⑤②⑥ |③-④⑤|
⑦③口⑧ |⑥-⑦-|
⑨口⑧口 |⑧-⑨-|
66
⑦⑦口④ |①-②-|
①口④口 |③-④-|
⑤①⑥口 |⑤-⑥-|
口③口② |⑦---|
67
口口口口 |①-②-|
口口④⑤ |③-④⑤|
口③⑦① |⑥-⑦-|
口⑥②⑧ |⑧---|
68
⑦①⑥⑥ |①-②③|
①②③口 |④-⑤-|
口⑤⑧③ |⑥-⑦-|
⑤⑨④口 |⑧-⑨-|
69
⑤口口口 |①-②-|
口⑤①口 |----|
②④口③ |--③-|
口口③口 |④-⑤-|
70
口口口① |----|
口③①口 |①---|
②④口口 |--②-|
口口口口 |③-④-|
71
口口口口 |①-②-|
口口口② |③---|
口口口③
口口①口

口口口口
口④口口
口口口口 |--④-|
口口⑤口 |⑤---|
72
①④①④ |①-②-|
口口口口 |③---|
③⑥③⑥ |④-⑤-|
口②⑤口 |⑥---|
73
口口④④ |①-②-|
②②③③ |③-④-|
口⑤口⑦ |--⑤-|
①①⑥口 |⑥-⑦-|
74
口口口口 |①---|
①口口① |②---|
口口口口 |----|
②口口② |----|
75
①口①口 |①-②-|
口口口口 |③-④-|
口④口④ |----|
③②③② |----|
76
口口口口 |①---|
①①①① |----|
口口口口 |----|
口口口口 |----|

不確定度: 0

最終更新:2014年08月01日 22:46