ハートに火をつけて
9mm Parabellum Bullet

ADVANCED

Level: 6
BPM: 205
Notes: 316

1
口口口口 |----|
口口口口 |----|
口口口口 |----|
口口口口 |----|
2
口口口① |①---|
口口口① |----|
口口口口 |----|
口口口口 |----|
3
口口口口 |①---|
口口口口 |----|
口口口口 |----|
①①口口 |----|
4
①口口口 |①---|
①口口口 |----|
口口口口 |----|
口口口口 |----|
5
口口口口 |①---|
口口口口 |----|
口口口口 |----|
口口①① |----|
6
口口口口 |①---|
①口口① |----|
口③口口 |②---|
口②口口 |③---|
7
口口口口 |①---|
①口口① |----|
口口③口 |②---|
口口②口 |③---|
8
口口口口 |①---|
①口口① |----|
口③口口 |②---|
口②口口 |③---|
9
④口口口 |①---|
口口口③ |②---|
②口口口 |③---|
口口口① |④---|
10
口①①口 |①---|
口口口口 |----|
口口口口 |----|
口口口口 |----|
11
口口口口 |①---|
口口口口 |②---|
②口口②
口①①口

BPM: 202

口口口口
③口口③
口口口口 |③---|
口口口口 |----|

BPM: 204
12
③口口口 |①---|
④口②口 |②---|
口①口口 |③---|
口口口口 |④---|
13
口口③③ |①---|
口②口口 |②---|
口口①口 |③---|
口口口口 |----|
14
③口口口 |①---|
④口②口 |②---|
口①口口 |③---|
口口口口 |④---|
15
口口口口 |①---|
口口口口 |②---|
口口①口 |③---|
口②③③ |----|

BPM: 206
16
③口口口 |①---|
④口②口 |②---|
口①口口 |③---|
口口口口 |④---|
17
口口③③ |①---|
口②口口 |②---|
口口①口 |③---|
口口口口 |----|
18
口口④口 |①---|
口③口口 |②---|
口口②口 |③---|
口①口口 |④---|
19
①①口口 |①---|
口口②② |②---|
口口口口 |③---|
口③③口 |----|

BPM: 205
20
口口口③ |①---|
口②口④ |②---|
口口①口 |③---|
口口口口 |④---|
21
③③口口 |①---|
口口②口 |②---|
口①口口 |③---|
口口口口 |----|
22
口口口③ |①---|
口②口④ |②---|
口口①口 |③---|
口口口口 |④---|
23
口口口口 |①---|
口口口口 |②---|
口①口口 |③---|
③③②口 |----|
24
口口口③ |①---|
口②口④ |②---|
口口①口 |③---|
口口口口 |④---|
25
③③口口 |①---|
口口②口 |②---|
口①口口 |③---|
口口口口 |----|
26
口④口口 |①---|
口口③口 |②---|
口②口口 |③---|
口口①口 |④---|
27
口口①① |①---|
②②口口 |②---|
口口口口 |③---|
口③③口 |----|
28
口口口口 |①---|
口②②口 |----|
①口口① |②---|
口口口口 |----|
29
口口口① |①---|
口口口② |②---|
口③口口 |③---|
口口口口 |----|
30
口口口口 |①---|
口②②口 |----|
①口口① |②---|
口口口口 |----|
31
①口口口 |①---|
②口口口 |②---|
口口③口 |③---|
口口口口 |----|
32
口口口口 |①---|
口口口口 |----|
口②②口 |②---|
口①①口 |----|
33
口②②口 |①---|
口①①口 |----|
口口口口 |②---|
口口口口 |----|
34
口口口口 |①---|
②口口② |----|
②①①② |②---|
口口口口 |----|
35
口口口口 |----|
口口口口 |----|
口口口口 |----|
口①口口 |①---|
36
口口口口 |①---|
口口口口 |②---|
口②口③ |③---|
口口口① |----|
37
口口口① |①---|
口口口② |②---|
口③口口 |③---|
口口④口 |④---|
38
口口口口 |①---|
口口口口 |②---|
③口②口 |③---|
①口口口 |----|
39
①口口口 |①---|
②口口口 |②---|
口口③口 |③---|
口口口口 |----|
40
口口口口 |①---|
口口口口 |----|
口②②口 |②---|
口①①口 |----|
41
口②②口 |①---|
口①①口 |----|
口口口口 |②---|
口口口口 |----|
42
口口口口 |①---|
②口口② |----|
②①①② |②---|
口口口口 |----|
43
口口口口 |----|
口①①口 |----|
口①①口 |①---|
口口口口 |----|
44
口口口① |①---|
②口口口 |--②-|
口口口口 |----|
口口口口 |----|
45
口口口口 |①---|
口口口口 |--②-|
口②口口 |----|
口口①口 |----|
46
口口口口 |①---|
口①①口 |----|
口口口口 |----|
口口口口 |----|
47
口口口口 |----|
口口口口 |----|
口口口口 |----|
口口口口 |----|
48
①口口口 |①---|
口口口② |--②-|
口口口口 |----|
口口口口 |----|
49
口口口口 |①---|
口口口口 |--②-|
口口②口 |----|
口①口口 |----|
50
口口口口 |①---|
口①①口 |----|
口口口口 |----|
口口口口 |----|
51
口口口口 |----|
口口口口 |----|
口口口口 |----|
口口口口 |----|
52
口口口口 |①---|
口①①口 |--②-|
口②②③ |----|
口口口口 |--③-|
53
口口口④ |--①-|
③口口② |--②-|
①口口口 |--③-|
口口口口 |--④-|
54
口①①口 |----|
口口口口 |--①-|
口口口口 |----|
口口口口 |----|
55
口口口口 |----|
口口口口 |----|
口口口口 |----|
口口口口 |----|
56
口口口口 |①---|
口②②口 |----|
口①①口 |②---|
口口口口 |----|
57
②①①② |①---|
口口口口 |----|
口口口口 |②---|
口口口口 |----|
58
口口口口 |①---|
①口口① |----|
口口口口 |----|
口口口口 |----|
59
②口口① |----|
口口口口 |①---|
口口口口 |②---|
口口口口 |----|
60
口口口口 |①---|
①②①口 |②-③-|
口③口口 |--④-|
④口⑤口 |--⑤-|
61
①口口② |----|
口③口③ |①---|
口口口口 |②---|
口口口口 |--③-|
62
口口口口 |----|
口口①口 |①-②-|
口口②口 |--③-|
口③口④ |--④-|
63
口口口口 |----|
口口口口 |----|
口口口口 |----|
口口口口 |----|
64
口口口② |①---|
口口口口 |----|
口①①口 |----|
口口口口 |--②-|
65
口口口口 |--①-|
口口口① |--②-|
口口口② |--③-|
口③口④ |--④-|
66
口口口口 |----|
口口口口 |----|
口口口口 |----|
口口口口 |----|
67
口③③口 |----|
口②口口 |①---|
口口①口 |②---|
口口口口 |--③-|
68
①口口② |----|
口口口③ |①-②-|
口口口④ |--③-|
口口口口 |--④-|
69
口③③口 |----|
口口②口 |①---|
口①口口 |②---|
口口口口 |--③-|
70
②口口① |----|
③口口口 |①-②-|
④口口口 |--③-|
口口口口 |--④-|
71
口口口口 |----|
口口口口 |----|
口口口口 |----|
口口口口 |----|
72
口口口口 |①---|
口②②口 |----|
口①①口 |②---|
口口口口 |----|
73
口口口① |①---|
口口口② |②---|
口口口③ |③---|
口口口口 |----|
74
口口口口 |①---|
口②②口 |----|
口①①口 |②---|
口口口口 |----|
75
①口口口 |①---|
②口口口 |②---|
③口口口 |③---|
口口口口 |----|
76
口口口口 |①---|
口①①口 |----|
口口③口 |②---|
口口②口 |③---|
77
口口口口 |①---|
①口口① |----|
口③口口 |②---|
口②口口 |③---|
78
口口口口 |①---|
①口口① |----|
口口③口 |②---|
口口②口 |③---|
79
口口口④ |①---|
③口口口 |②---|
口口口② |③---|
①口口口 |④---|
80
口①①口 |①---|
口口口口 |----|
口口口口 |----|
口口口口 |----|
81
③口口③ |①---|
②口口② |②---|
①口口① |③---|
口口口口 |----|
82
③口口口 |①---|
④口②口 |②---|
口①口口 |③---|
口口口口 |④---|
83
口口③③ |①---|
口②口口 |②---|
口口①口 |③---|
口口口口 |----|
84
③口口口 |①---|
④口②口 |②---|
口①口口 |③---|
口口口口 |④---|
85
口口口口 |①---|
口口口口 |②---|
口口①口 |③---|
口②③③ |----|
86
③口口口 |①---|
④口②口 |②---|
口①口口 |③---|
口口口口 |④---|
87
口口③③ |①---|
口②口口 |②---|
口口①口 |③---|
口口口口 |----|
88
口口④口 |①---|
口③口口 |②---|
口口②口 |③---|
口①口口 |④---|
89
①①口口 |①---|
口口②② |②---|
口口口口 |③---|
口③③口 |----|
90
口④口口 |①---|
口口③口 |②---|
②口口口 |③---|
口口口① |④---|
91
口口口口 |----|
口①①口 |----|
口②②口 |①---|
口口口口 |②---|
92
口口口口 |①---|
①口口① |----|
①口口① |----|
口口口口 |----|


不確定度: 0

最終更新:2013年04月08日 00:18