Gravity
HaKU

BASIC

Level: 4
BPM: 175
Notes: 305

BPM: 174
1
口口口口 |----|
口口口口 |----|
口口口口 |----|
口口口口 |----|
2
口①①口 |①---|
口②②口 |②---|
口③③口 |③---|
口④④口 |④---|
3
口口口口 |①---|
口①①口 |②---|
口②②口 |③---|
口③③口

BPM: 188.5

口口口口
口口口口
口口口口
口口口口 |----|

BPM: 174
4
口口口口 |①---|
口口口口 |②---|
①②③④ |③---|
口口口口 |④---|
5
口口口口 |①---|
①②④③ |②---|
口口口口 |③---|
口口口口 |④---|
6
①②③④ |①---|
口口口口 |②---|
口口口口 |③---|
口口口口 |④---|
7
口口口口 |①---|
③④②① |②---|
口口口口 |③---|
口口口口 |④---|
8
口口口口 |①---|
口口口口 |②---|
④③②① |③---|
口口口口 |④---|
9
口口口口 |①---|
①②③④ |②---|
口口口口 |③---|
口口口口 |④---|

BPM: 176
10
①②③④ |①---|
口口口口 |②---|
口口口口 |③---|
口口口口 |④---|
11
①②③④ |①---|
口口口口 |②---|
口口口口 |③---|
口口口口 |④---|

BPM: 175
12
口口口口 |①---|
①口口② |②---|
③口口④ |③---|
口口口口 |④---|
13
口口口口 |①---|
①口口② |②---|
③口口④ |③---|
口口口口 |④---|
14
口①②口 |①---|
口口口口 |②---|
口③④口 |③---|
口口口口 |④---|
15
口口口口 |①---|
口①②口 |②---|
口口口口 |③---|
口③④口 |④---|
16
口口口口 |①---|
①③④② |②---|
口口口口 |③---|
口口口口 |④---|
17
口口口口 |①---|
口口口口 |②---|
①③④② |③---|
口口口口 |④---|
18
口①②口 |①---|
口③④口 |②---|
口口口口 |③---|
口口口口 |④---|

BPM: 172
19
口口口口 |①---|
口口口口 |②---|
口③④口 |③---|
口①②口 |④---|

BPM: 179
20
口口口口 |①---|
口①①口 |----|
口口口口 |----|
口口口口 |----|

BPM: 175
21
口口口口 |①---|
①②口① |----|
口口③口 |②---|
口口口口 |③---|
22
口口口口 |①---|
口口口口 |----|
口口口口 |----|
口①①口 |----|
23
口口口口 |①---|
口口口口 |----|
①口口① |----|
口口口口 |----|
24
①口口② |①---|
③口口④ |②---|
口口口口 |③---|
口口口口 |④---|
25
口口口口 |①---|
口口口口 |②---|
①口口② |③---|
③口口④ |④---|
26
口口口口 |①---|
口口口口 |----|
口①①口 |----|
口口口口 |----|
27
口口口口 |①---|
口口口口 |----|
口①②口 |②---|
口口口口 |----|
28
口口口口 |①---|
口①①口 |----|
口口口口 |----|
口口口口 |----|
29
口口口口 |①---|
①②口① |----|
口口③口 |②---|
口口口口 |③---|
30
口口口口 |①---|
口口口口 |----|
口口口口 |②---|
②①①② |----|
31
口口口口 |①---|
②口口② |----|
①口口① |②---|
口口口口 |----|
32
①口口② |①---|
③口口④ |②---|
口口口口 |③---|
口口口口 |④---|
33
口口口口 |①---|
口口口口 |②---|
①口口② |③---|
③口口④ |④---|
34
口口口口 |①---|
口口口口 |----|
口①①口 |----|
口口口口 |----|
35
口口口口 |①---|
口口口口 |----|
口①②口 |②---|
口口口口 |----|
36
口口口口 |①-②-|
口口口口 |③---|
口口口口 |----|
①②③口 |----|
37
口口口口 |----|
口口口口 |----|
口口口口 |----|
口口口口 |----|
38
口口口口 |①-②-|
口口口口 |③---|
口③②① |----|
口口口口 |----|
39
口口口口 |----|
口口口口 |----|
口口口口 |----|
口口口口 |----|
40
口口口口 |①-②-|
①②③口 |③---|
口口口口 |----|
口口口口 |----|
41
口口口口 |----|
口口口口 |----|
口口口口 |----|
口口口口 |----|
42
口口口口 |①---|
口③③口 |----|
口②②口 |②---|
①口口① |③---|
43
①口口① |----|
②口口② |①---|
③口口③ |②---|
口口口口 |③---|
44
口口口口 |----|
口②②口 |----|
口口口口 |①---|
口①①口 |②---|
45
口口口口 |----|
口②②口 |①---|
口口口口 |----|
①口口① |②---|
46
③口口③ |①---|
②口口② |----|
口①①口 |②---|
口口口口 |③---|
47
口①①口 |----|
口②②口 |----|
口口口口 |①---|
口口口口 |②---|
48
③口口③ |①---|
②口口② |----|
口①①口 |②---|
口口口口 |③---|
49
口口口口 |----|
口口口口 |----|
口②②口 |①---|
口①①口 |②---|
50
①口口① |①---|
②口口② |②---|
③口口③ |③---|
④口口④ |④---|
51
口口口口 |----|
口口口口 |----|
口口口口 |①---|
口①①口 |----|
52
口①①口 |①---|
②口口② |----|
口口口口 |----|
口口口口 |②---|
53
口口口口 |①---|
口口口口 |----|
口②②口 |----|
①口口① |②---|
54
口①①口 |①---|
②口口② |----|
口口口口 |----|
口口口口 |②---|
55
口口口口 |①---|
口口口口 |----|
口②口口 |----|
①口口① |②---|
56
②口口② |①---|
口口口口 |----|
口口①口 |②---|
口③③口 |③---|
57
④口口④ |①---|
口②②口 |②---|
③①①③ |③---|
口口口口 |④---|
58
口口口口 |----|
口②②口 |----|
口口口口 |①---|
口①①口 |②---|
59
口口口口 |----|
口③③口 |①---|
②口口② |②---|
①口口① |③---|
60
③口口③ |①---|
②口口② |----|
口①①口 |②---|
口口口口 |③---|
61
口①①口 |----|
口②②口 |----|
口口口口 |①---|
口口口口 |②---|
62
③口口③ |①---|
②口口② |----|
口口口口 |②---|
口①①口 |③---|
63
口口口口 |----|
口口口口 |----|
口②②口 |①---|
口①①口 |②---|
64
①口口① |①---|
②口口② |②---|
③口口③ |③---|
④口口④ |④---|
65
口口口口 |----|
口口口口 |----|
口口口口 |----|
口口口口 |----|
66
口①①口 |①---|
②口口② |----|
口口口口 |----|
口口口口 |②---|
67
口口口口 |①---|
口口口口 |----|
口②②口 |----|
①口口① |②---|
68
口①①口 |①---|
②口口② |----|
口口口口 |----|
口口口口 |②---|
69
口口口口 |①---|
口口口口 |----|
口②口口 |----|
①口口① |②---|
70
②口口② |①---|
口口口口 |----|
口口①口 |②---|
口③③口 |③---|
71
④口口④ |①---|
口②②口 |②---|
口①①口 |③---|
③口口③ |④---|
72
口④④口 |①---|
口③③口 |②---|
口②②口 |③---|
口①①口 |④---|
73
口④④口 |①---|
口③③口 |②---|
口②②口 |③---|
口①①口 |④---|
74
口④④口 |①---|
口③③口 |②---|
口②②口 |③---|
口①①口 |④---|
75
①口口① |①---|
口口口口 |----|
口口口口 |----|
口口口口 |----|


不確定度: 0

最終更新:2013年04月08日 00:00