Gravity
HaKU

ADVANCED

Level: 7
BPM: 175
Notes: 461

BPM: 174
1
口口口口 |----|
口口口口 |----|
口口口口 |----|
口口口口 |----|
2
口①①口 |①---|
口②②口 |②---|
口③③口 |③---|
口④④口 |④---|
3
口口口口 |①---|
口①①口 |②---|
口②②口 |③---|
口③③口

BPM: 188.5

口口口口
口口口口
口口口口
口口口口 |----|

BPM: 174
4
口口口④ |①---|
口口口③ |②---|
口口口② |③---|
①口口① |④---|
5
④口口口 |①---|
③口口③ |②---|
②口口口 |③---|
①口口① |④---|
6
口口④口 |①---|
口口③口 |②---|
口口②口 |③---|
口①①口 |④---|
7
口④口口 |①---|
口③③口 |②---|
口②口口 |③---|
口①①口 |④---|
8
口口口④ |①---|
口口口③ |②---|
口口口② |③---|
①口口① |④---|
9
④口口口 |①---|
③口口口 |②---|
②口口口 |③---|
①口口① |④---|

BPM: 176
10
口口④口 |①---|
口口③口 |②---|
口口②口 |③---|
口①①口 |④---|
11
口④口口 |①---|
口③口口 |②---|
口②口口 |③---|
口①①口 |④---|

BPM: 175
12
口口口口 |①---|
④④②② |②---|
口口口口 |③---|
口③①口 |④---|
13
口口口口 |①---|
④④②② |②---|
口口口口 |③---|
口③①口 |④---|
14
④④②② |①---|
口口口口 |②---|
口③①口 |③---|
口口口口 |④---|
15
④④②② |①---|
口口口口 |②---|
口③①口 |③---|
口口口口 |④---|
16
口口口口 |①---|
①口口③ |②---|
口口口口 |③---|
②②④④ |④---|
17
口口口口 |①---|
①口口③ |②---|
口口口口 |③---|
②②④④ |④---|
18
②②④④ |①---|
口口口口 |②---|
口①③口 |③---|
口口口口 |④---|

BPM: 172
19
口口口口 |①---|
口口口口 |----|
口②②口 |②---|
①③③① |③---|

BPM: 179
20
口口口口 |--①-|
①口口② |②---|
④口口③ |③--④|
口口口⑤ |--⑤-|

BPM: 175
21
口⑤④口 |--①-|
口③⑥口 |②-③-|
口⑦②口 |④-⑤-|
口①口口 |⑥-⑦-|
22
口⑥口⑤ |--①-|
③口口④ |②-③-|
①口口② |④--⑤|
口口口口 |--⑥-|
23
口口口口 |--①-|
口口口口 |②-③-|
口①②口 |④---|
口③④口 |----|
24
①口口② |①-②-|
③口口④ |③-④-|
⑤口口⑥ |⑤-⑥-|
⑦口口⑧ |⑦-⑧-|
25
口①②口 |①-②-|
口③④口 |③-④-|
口⑤⑥口 |⑤-⑥-|
口⑦⑧口 |⑦-⑧-|
26
口口口口 |----|
口口口口 |----|
口口口口 |----|
口口口口 |----|
27
口口口口 |①---|
口口口口 |----|
口②②口 |②---|
口①①口 |----|
28
口口口口 |--①-|
①口口② |②-③-|
③⑤口④ |④--⑤|
口口口⑥ |--⑥-|
29
口④口口 |--①-|
口③口口 |②-③-|
口⑥②⑤ |④---|
口①口口 |⑤-⑥-|
30
②口口② |--①-|
口口口口 |--②-|
③口口③ |--③-|
①④④① |--④-|
31
口口口口 |--①-|
口②②口 |--②-|
口①①口 |----|
口口口口 |----|
32
①口口② |①-②-|
③口口④ |③-④-|
⑤口口⑥ |⑤-⑥-|
⑦口口⑧ |⑦-⑧-|
33
口①②口 |①-②-|
口③④口 |③-④-|
⑦⑤⑥⑧ |⑤-⑥-|
口口口口 |⑦-⑧-|
34
口口口口 |①---|
口口口口 |----|
口口口口 |----|
口①①口 |----|
35
口口口口 |①---|
口口口口 |----|
口②②口 |②---|
口①①口 |----|
36
②口①口 |----|
口口口口 |----|
口口③口 |①-②-|
口口口口 |--③-|
37
口口口口 |----|
口口口① |①---|
口②口③ |②-③-|
口口④④ |--④-|
38
口①②口 |----|
口③④口 |----|
口口口口 |①-②-|
口口口口 |③-④-|
39
③口口③ |①-②-|
口口口口 |--③-|
口①口口 |----|
④口②⑤ |④-⑤-|
40
口口口口 |----|
口⑤口口 |--①-|
口③④口 |②-③-|
口①②口 |④-⑤-|
41
口②①口 |①-②-|
口口③口 |③---|
口口口口 |----|
口口口口 |----|
42
口口口口 |①---|
口口口口 |----|
口②口口 |②---|
①③③① |③---|
43
①口口① |----|
②口口② |①---|
③口口③ |②---|
口口口口 |③---|
44
②口口② |----|
口口口口 |----|
口口口口 |①---|
①口口① |②---|
45
④②②④ |①---|
口口口口 |②---|
口①③口 |③---|
口口口口 |④---|
46
④④④④ |①---|
③口口③ |②---|
②口口② |③---|
①口口① |④---|
47
口口口口 |①---|
口①②口 |②---|
口③④口 |③---|
口③④口 |④---|
48
④④④④ |①---|
③口口③ |②---|
②口口② |③---|
①口口① |④---|
49
口口口口 |①---|
口①②口 |②---|
口③④口 |③---|
口③④口 |④---|
50
①口口① |①---|
②口口② |②---|
③口口③ |③---|
④口口④ |④---|
51
口口口口 |①---|
口①②口 |②---|
口③④口 |③---|
口③④口 |④---|
52
①口口① |①---|
口②③口 |②---|
④口口④ |③---|
口口口口 |④---|
53
口口口口 |①---|
口②③口 |②---|
口口口口 |③---|
①④④① |④---|
54
①口口① |①---|
口②③口 |②---|
④口口④ |③---|
口口口口 |④---|
55
口口口口 |①---|
口②③口 |②---|
口口口口 |③---|
①④④① |④---|
56
③口口③ |①---|
口口口口 |②---|
①口口② |③---|
口④④口 |④---|
57
④④④④ |①---|
口②②口 |②---|
口①①口 |③---|
③口口③ |④---|
58
②口口② |----|
口口口口 |----|
口口口口 |①---|
①口口① |②---|
59
④②②④ |①---|
口口口口 |②---|
口①③口 |③---|
口口口口 |④---|
60
④④④④ |①---|
③口口③ |②---|
②口口② |③---|
①口口① |④---|
61
口口口口 |①---|
口①②口 |②---|
口③④口 |③---|
口③④口 |④---|
62
④④④④ |①---|
③口口③ |②---|
②口口② |③---|
①口口① |④---|
63
口口口口 |①---|
口①②口 |②---|
口③④口 |③---|
口③④口 |④---|
64
①①①① |①---|
②口口② |②---|
③口口③ |③---|
④口口④ |④---|
65
口①①口 |①---|
口②②口 |②---|
口③③口 |③---|
口④④口 |④---|
66
①口口① |①---|
口②③口 |②---|
④口口④ |③---|
口口口口 |④---|
67
口口口口 |①---|
口②③口 |②---|
口口口口 |③---|
①④④① |④---|
68
①口口① |①---|
口②③口 |②---|
④口口④ |③---|
口口口口 |④---|
69
口口口口 |①---|
口②③口 |②---|
口口口口 |③---|
①④④① |④---|
70
③口口③ |①---|
口口口口 |②---|
①口口② |③---|
口④④口 |④---|
71
④④④④ |①---|
口②②口 |②---|
口①①口 |③---|
③口口③ |④---|
72
口④④口 |①---|
口③③口 |②---|
口②②口 |③---|
口①①口 |④---|
73
④口口④ |①---|
③口口③ |②---|
②口口② |③---|
①口口① |④---|
74
④④④④ |①---|
③③③③ |②---|
②②②② |③---|
①①①① |④---|
75
口口口口 |①---|
口口口口 |----|
口口口口 |----|
①①①① |----|


不確定度: 0

最終更新:2013年04月07日 23:59