this storyends
winnie

BASIC

Level: 2
BPM: 238
Notes: 128

全程BPM在238附近飄忽不定
1
口口口口 |----|
口口口口 |----|
口口口口 |----|
口口口口 |----|
2
口口口口 |①---|
口口口口 |----|
口口①口 |----|
口口口口 |----|
3
口口口口 |----|
口口口口 |----|
口口口口 |----|
口口口口 |----|
4
口口口口 |①---|
口口口口 |----|
口①口口 |----|
口口口口 |----|
5
口口口口 |----|
口口口口 |----|
口口口口 |----|
口口口口 |----|
6
口口口口 |①---|
口口口口 |----|
口①①口 |----|
口口口口 |----|
7
口口口口 |----|
口口口口 |----|
口口口口 |----|
口口口口 |----|
8
口口口口 |①---|
口口①口 |----|
口口口口 |----|
口口口口 |----|
9
口口口口 |①---|
口①口口 |----|
口口口口 |----|
口口口口 |----|
10
口口口口 |①---|
口口口口 |----|
口①①口 |----|
口口口口 |----|
11
口口口口 |----|
口口口口 |----|
口口口口 |----|
口口口口 |----|
12
口口口口 |①---|
口口口① |----|
口口口口 |----|
口口口口 |----|
13
口口口口 |①---|
①口口口 |----|
口口口口 |----|
口口口口 |----|
14
口口口口 |①---|
口口口口 |----|
口口口口 |----|
口①①口 |----|
15
口口口口 |----|
口口口口 |----|
口口口口 |----|
口口口口 |----|
16
口口口口 |①---|
口口口口 |----|
口口①口 |----|
口口口口 |----|
17
口口口口 |①---|
口口口口 |----|
口①口口 |----|
口口口口 |----|
18
口口口口 |①---|
口口口口 |----|
口口口口 |----|
口①①口 |----|
19
口口口口 |----|
口口口口 |----|
口口口口 |----|
口口口口 |----|
20
口口口口 |①---|
口口口口 |----|
口口口① |----|
口口口口 |----|
21
口口口口 |①---|
口口口口 |----|
①口口口 |----|
口口口口 |----|
22
口口口口 |①---|
口口口口 |----|
口口①① |----|
口口口口 |----|
23
口口口口 |①---|
口口②① |----|
口口口口 |②---|
口口口口 |----|
24
口口口口 |----|
口口口口 |----|
口口口口 |----|
口口口口 |----|
25
口口口口 |----|
口口口口 |----|
口口口口 |----|
口口口口 |----|
26
口口口口 |①---|
口口口口 |----|
①①口口 |----|
口口口口 |----|
27
口口口口 |①---|
②①口口 |----|
口口口口 |②---|
口口口口 |----|
28
口口口口 |----|
口口口口 |----|
口口口口 |----|
口口口口 |----|
29
口口口口 |----|
口口口口 |----|
口口口口 |----|
口口口口 |----|
30
口口口口 |①---|
口口口口 |----|
口①①口 |----|
口口口口 |----|
31
口口口口 |①---|
口②①口 |----|
口口口口 |②---|
口口口口 |----|
32
口口口口 |----|
口口口口 |----|
口口口口 |----|
口口口口 |----|
33
口①①口 |----|
口口口口 |----|
口口口口 |①---|
口口口口 |----|
34
口口口口 |①---|
口①①口 |----|
口口口口 |----|
口口口口 |----|
35
口口口口 |----|
口口口口 |----|
口口口口 |----|
口口口口 |----|
36
口口口口 |----|
口口口口 |----|
口口口口 |----|
口口口口 |----|
37
口口口口 |----|
口口口口 |----|
口口口口 |----|
口口口口 |----|
38
口口口口 |①---|
口口口口 |----|
口口①① |----|
口口口口 |----|
39
口口②① |①---|
口口口口 |----|
口口口口 |②---|
口口口口 |----|
40
口口口口 |----|
口口口口 |----|
口口口口 |----|
口口口口 |----|
41
口口口口 |----|
口口口口 |----|
口口口口 |----|
口口口口 |----|
42
口口口口 |①---|
口口口口 |----|
①①口口 |----|
口口口口 |----|
43
②①口口 |①---|
口口口口 |----|
口口口口 |②---|
口口口口 |----|
44
口口口口 |----|
口口口口 |----|
口口口口 |----|
口口口口 |----|
45
口口口口 |----|
口口口口 |----|
口口口口 |----|
口口口口 |----|
46
口口口口 |①---|
口口口口 |----|
口①①口 |----|
口口口口 |----|
47
口②①口 |①---|
口口口口 |----|
口口口口 |②---|
口口口口 |----|
48
口口口口 |----|
口口口口 |----|
口口口口 |----|
口口口口 |----|
49
口①①口 |----|
口口口口 |----|
口口口口 |①---|
口口口口 |----|
50
口口口口 |①---|
口①①口 |----|
口口口口 |----|
口口口口 |----|
51
口口口口 |----|
口口口口 |----|
口口口口 |----|
口口口口 |----|
52
口口口口 |----|
口口口口 |----|
口口口口 |----|
口口口口 |----|
53
口口口口 |----|
口口口口 |----|
口口口口 |----|
口口口口 |----|
54
口口口口 |①---|
口口口口 |----|
口口口口 |②---|
口②①口 |----|
55
口口口口 |①---|
口②②口 |----|
口①①口 |②---|
口口口口 |----|
56
口②①口 |①---|
口口口口 |----|
口口口口 |②---|
口口口口 |----|
57
口口口口 |①---|
口①①口 |----|
口②②口 |②---|
口口口口 |----|
58
口口口口 |①---|
口口口口 |----|
口口口口 |②---|
口①②口 |----|
59
口口口口 |①---|
口口口口 |----|
①口口② |②---|
口口口口 |----|
60
口口口口 |①---|
口口口口 |----|
口①①口 |----|
口口口口 |----|
61
口口口口 |①---|
口①②口 |----|
口口口口 |②---|
口口口口 |----|
62
口①①口 |①---|
口口口口 |----|
口口口口 |----|
口口口口 |----|
63
口口口口 |----|
口口口口 |----|
口①口口 |①---|
口口口口 |----|
64
口口口口 |①---|
口口②口 |----|
口口①口 |②---|
口口口口 |----|
65
口口①口 |①---|
口口口口 |----|
口口口口 |----|
口口口口 |----|
66
口①口口 |①---|
口②口口 |----|
口口口口 |②---|
口口口口 |----|
67
口口口口 |①---|
口口口口 |----|
口①口口 |②---|
口②口口 |----|
68
口口口口 |①---|
口口口口 |----|
口口②口 |②---|
口口①口 |----|
69
口口口口 |①---|
口①②口 |----|
口口口口 |②---|
口口口口 |----|
70
口①①口 |①---|
口口口口 |----|
口口口口 |----|
口口口口 |----|
71
口口口口 |----|
口口口口 |----|
口①口口 |①---|
口口口口 |----|
72
口口口口 |①---|
口口②口 |----|
口口①口 |②---|
口口口口 |----|
73
口口①口 |①---|
口口口口 |----|
口口口口 |----|
口口口口 |----|
74
口①口口 |①---|
口②口口 |----|
口口口口 |②---|
口口口口 |----|
75
口口口口 |①---|
口口口口 |----|
口①口口 |②---|
口②口口 |----|
76
口口口口 |①---|
口口口口 |----|
口口②口 |②---|
口口①口 |----|
77
口口口口 |①---|
口①②口 |----|
口口口口 |②---|
口口口口 |----|
78
口①①口 |①---|
口口口口 |----|
口口口口 |----|
口口口口 |----|
79
口口口口 |----|
口口口口 |----|
口①口口 |①---|
口口口口 |----|
80
口口口口 |①---|
口口②口 |----|
口口①口 |②---|
口口口口 |----|
81
口口①口 |①---|
口口口口 |----|
口口口口 |----|
口口口口 |----|
82
口①口口 |①---|
口②口口 |----|
口口口口 |②---|
口口口口 |----|
83
口口口口 |①---|
口口口口 |----|
口①口口 |②---|
口②口口 |----|
84
口口口口 |①---|
口口口口 |----|
口口②口 |②---|
口口①口 |----|
85
口口口口 |①---|
口①②口 |----|
口口口口 |②---|
口口口口 |----|
86
①口口① |①---|
口口口口 |----|
口口口口 |----|
口口口口 |----|
87
口口口口 |----|
口口口口 |----|
口①口口 |①---|
口口口口 |----|
88
口口口口 |①---|
口口②口 |----|
口口①口 |②---|
口口口口 |----|
89
口口①口 |①---|
口口口口 |----|
口口口口 |----|
口口口口 |----|
90
口①口口 |①---|
口②口口 |----|
口口口口 |②---|
口口口口 |----|
91
口口口口 |①---|
口口口口 |----|
口①口口 |②---|
口②口口 |----|
92
口口口口 |①---|
口口口口 |----|
口口②口 |②---|
口口①口 |----|
93
口口口口 |①---|
口②①口 |----|
口口口口 |②---|
口口口口 |----|
94
①口口① |①---|
口口口口 |----|
口口口口 |----|
口口口口 |----|


不確定度: 0

最終更新:2013年04月07日 23:51