this storyends
winnie

ADVANCED

Level: 5
BPM: 238
Notes: 304

全程BPM在238附近飄忽不定
1
口口口口 |----|
口口口口 |----|
口口口口 |----|
口口口口 |----|
2
口②口口 |①---|
口口①口 |--②-|
口①口口 |----|
口口②口 |----|
3
口口口口 |----|
口口口口 |----|
口口口口 |----|
口口口口 |----|
4
口口②口 |①---|
口①口口 |--②-|
口口①口 |----|
口②口口 |----|
5
口口口口 |----|
口口口口 |----|
口口口口 |----|
口口口口 |----|
6
口口口② |①---|
①口口③ |--②-|
口口口① |----|
②口口口 |③---|
7
③口④④ |①---|
口②口口 |②---|
口口①口 |③---|
口口口口 |④---|
8
口口口口 |①---|
口口口口 |--②-|
①口口② |----|
口口口口 |----|
9
口口口口 |①---|
①口口② |--②-|
口口口口 |----|
口口口口 |----|
10
口口②口 |①---|
③①口口 |--②-|
口口①口 |----|
口②口口 |③---|
11
④④口③ |①---|
口口②口 |②---|
口①口口 |③---|
口口口口 |④---|
12
口口②口 |①---|
口①口口 |--②-|
口口①口 |----|
口②口口 |----|
13
口②口口 |①---|
口口①口 |--②-|
口①口口 |----|
口口②口 |----|
14
口口口② |①---|
①口口③ |--②-|
口口口① |----|
②口口口 |③---|
15
③口④④ |①---|
口②口口 |②---|
口口①口 |③---|
口口口口 |④---|
16
口口口口 |①---|
口口口口 |--②-|
①口口② |----|
口口口口 |----|
17
口口口口 |①---|
①口口② |--②-|
口口口口 |----|
口口口口 |----|
18
口口②口 |①---|
③①口口 |--②-|
口口①口 |----|
口②口口 |③---|
19
④④口③ |①---|
口口②口 |②---|
口①口口 |③---|
口口口口 |④---|
20
口口②口 |①---|
口①口口 |--②-|
口口①口 |----|
口②口口 |----|
21
口②口口 |①---|
口口①口 |--②-|
口①口口 |----|
口口②口 |----|
22
口口口口 |①-②-|
口④口口 |--③-|
③口②① |----|
口口口口 |④---|
23
口②口② |①---|
①口①口 |②---|
口③口③ |③---|
口口口口 |----|
24
口口口口 |----|
口口口口 |----|
口口口口 |----|
口口口口 |----|
25
②口③① |----|
口口口口 |----|
口口口口 |①-②-|
口口口口 |③---|
26
口口口口 |①-②-|
口②口① |③-④-|
口④口③ |----|
⑤口⑤口 |⑤---|
27
④③④③ |①---|
②口口口 |②---|
口口①口 |③---|
口口口口 |④---|
28
口口口口 |----|
口口口口 |----|
口口口口 |----|
口口口口 |----|
29
口口口口 |----|
口口口口 |----|
口口口口 |----|
口口口口 |----|
30
口⑥口⑤ |①-②-|
口口口口 |③-④-|
口④③口 |----|
口②①口 |⑤-⑥-|
31
口口口口 |①---|
口③③① |②---|
口口口② |③---|
口口口口 |----|
32
口口口口 |----|
口口口口 |----|
口口口口 |----|
口口口口 |----|
33
口①①口 |----|
口口口口 |----|
口口口口 |①---|
口口口口 |----|
34
口口口口 |①---|
口口口口 |----|
①口口① |----|
口口口口 |----|
35
口口口口 |----|
口口口口 |----|
口口口口 |----|
口口口口 |----|
36
口口口口 |----|
口口口口 |----|
口口口口 |----|
口口口口 |----|
37
口口口口 |----|
口口口口 |----|
口口口口 |----|
口口口口 |----|
38
口口口口 |①-②-|
口④口口 |--③-|
③口②① |----|
口口口口 |④---|
39
口②口② |①---|
①口①口 |②---|
口③口③ |③---|
口口口口 |----|
40
口口口口 |----|
口口口口 |----|
口口口口 |----|
口口口口 |----|
41
②口③① |----|
口口口口 |----|
口口口口 |①-②-|
口口口口 |③---|
42
口口口口 |①-②-|
口②口① |③-④-|
口④口③ |----|
⑤口⑤口 |⑤---|
43
④③④③ |①---|
②口口口 |②---|
口口①口 |③---|
口口口口 |④---|
44
口口口口 |----|
口口口口 |----|
口口口口 |----|
口口口口 |----|
45
口口口口 |----|
口口口口 |----|
口口口口 |----|
口口口口 |----|
46
口口口⑤ |①-②-|
口口口口 |③-④-|
口④③口 |----|
口②①口 |⑤---|
47
口口口口 |①---|
口③③① |②---|
口口口② |③---|
口口口口 |----|
48
口口口口 |----|
口口口口 |----|
口口口口 |----|
口口口口 |----|
49
口①①口 |----|
口口口口 |----|
口口口口 |①---|
口口口口 |----|
50
口口口口 |①---|
口口口口 |----|
①口口① |----|
口口口口 |----|
51
口口口口 |----|
口口口口 |----|
口口口口 |----|
口口口口 |----|
52
口口口口 |----|
口口口口 |----|
口口口口 |----|
口口口口 |----|
53
口口口口 |----|
口口口口 |----|
口口口口 |----|
口口口口 |----|
54
口②口① |①-②-|
口口口③ |--③-|
口⑤口④ |--④-|
口口口⑥ |⑤-⑥-|
55
口口②口 |--①-|
口口口口 |--②-|
口口①口 |----|
口口口口 |----|
56
⑤口⑤口 |①-②-|
③口④口 |--③-|
口口口口 |--④-|
①口②口 |--⑤-|
57
口口口口 |--①-|
口②口口 |--②-|
①口①口 |----|
口口口口 |----|
58
口口口口 |①-②-|
口④⑤口 |--③-|
口③③口 |--④-|
口②①口 |--⑤-|
59
口①②口 |--①-|
③口口③ |--②-|
口口口口 |--③-|
口口口口 |----|
60
①口口① |①---|
口口口口 |----|
口口口口 |----|
口口口口 |----|
61
②③②③ |①---|
口口口口 |--②-|
①口①口 |----|
口口口口 |③---|
62
口口口口 |①---|
口口口口 |----|
口①口① |----|
口口口口 |----|
63
口①口① |----|
口口口口 |----|
②口②口 |①---|
口口口口 |②---|
64
②口②口 |①---|
口口口口 |--②-|
口口口口 |----|
③①③① |③---|
65
口口口口 |----|
口口口口 |----|
口口口口 |----|
口口口口 |----|
66
口口③③ |①---|
口口②口 |--②-|
口口口口 |----|
口口①口 |③---|
67
③③口口 |①---|
口②口口 |--②-|
口口口口 |----|
口①口口 |③---|
68
口口口口 |①---|
口③③口 |--②-|
口②口口 |----|
口口①口 |③---|
69
②③②③ |①---|
口口口口 |--②-|
①口①口 |----|
口口口口 |③---|
70
口口口口 |①---|
口口口口 |----|
口①口① |----|
口口口口 |----|
71
口①口① |----|
口口口口 |----|
②口②口 |①---|
口口口口 |②---|
72
②口②口 |①---|
口口口口 |--②-|
口口口口 |----|
③①③① |③---|
73
口口口口 |----|
口口口口 |----|
口口口口 |----|
口口口口 |----|
74
口口③③ |①---|
口口②口 |--②-|
口口口口 |----|
口口①口 |③---|
75
③③口口 |①---|
口②口口 |--②-|
口口口口 |----|
口①口口 |③---|
76
口口口口 |①---|
口③③口 |--②-|
口②口口 |----|
口口①口 |③---|
77
②③②③ |①---|
口口口口 |--②-|
①口①口 |----|
口口口口 |③---|
78
口口口口 |①---|
口口口口 |----|
口①口① |----|
口口口口 |----|
79
口①口① |----|
口口口口 |----|
②口②口 |①---|
口口口口 |②---|
80
②口②口 |①---|
口口口口 |--②-|
口口口口 |----|
③①③① |③---|
81
口口口口 |----|
口口口口 |----|
口口口口 |----|
口口口口 |----|
82
口口③③ |①---|
口口②口 |--②-|
口口口口 |----|
口口①口 |③---|
83
③③口口 |①---|
口②口口 |--②-|
口口口口 |----|
口①口口 |③---|
84
口口口口 |①---|
口③③口 |--②-|
口②口口 |----|
口口①口 |③---|
85
②③②③ |①---|
口口口口 |--②-|
①口①口 |----|
口口口口 |③---|
86
口口口口 |①---|
口口口口 |----|
口①口① |----|
口口口口 |----|
87
口①口① |----|
口口口口 |----|
②口②口 |①---|
口口口口 |②---|
88
②口②口 |①---|
口口口口 |--②-|
口口口口 |----|
③①③① |③---|
89
口口口口 |----|
口口口口 |----|
口口口口 |----|
口口口口 |----|
90
口口③③ |①---|
口口②口 |--②-|
口口口口 |----|
口口①口 |③---|
91
③③口口 |①---|
口②口口 |--②-|
口口口口 |----|
口①口口 |③---|
92
口口口口 |①---|
口③③口 |--②-|
口②口口 |----|
口口①口 |③---|
93
①口①口 |①---|
②口口③ |--②-|
口口口口 |----|
口口口口 |③---|
94
口①口① |①---|
口口口口 |----|
口口口口 |----|
口口口口 |----|


不確定度: 0

最終更新:2013年04月07日 23:50