くちばしにチェリー
EGO-WRAPPIN'

BASIC

Level: 4
BPM: 187
Notes: 272

全程BPM在187附近飄忽不定
1
口口口口 |------|
口口口口 |------|
口口口口 |------|
口口口口 |------|
2
口口口口 |------|
口口口口 |------|
口口口口 |------|
口口口口 |------|
3
口口口口 |------|
口口口口 |------|
口口口口 |------|
口口口口 |------|
4
口口口口 |------|
口口口口 |------|
口口口口 |------|
口口口口 |------|
5
①②③④ |①-----|
口口口口 |②-----|
口口口口 |③-----|
口口口口 |④-----|
6
口口口口 |①-----|
口口口口 |------|
②①①② |②-----|
口口口口 |------|
7
口口口口 |①-----|
④③②① |②-----|
口口口口 |③-----|
口口口口 |④-----|
8
口口口口 |①-----|
口口口口 |------|
口口口口 |②-----|
②①①② |------|
9
①②③④ |①-----|
口口口口 |②-----|
口口口口 |③-----|
口口口口 |④-----|
10
口口口口 |①-----|
口口口口 |------|
②①①② |②-----|
口口口口 |------|
11
口①①口 |①-----|
口②②口 |------|
口口口口 |②-----|
口口口口 |------|
12
口口口口 |①-----|
口口口口 |------|
①口口① |------|
口口口口 |------|
13
①②③④ |①-----|
口口口口 |②-----|
口口口口 |③-----|
口口口口 |④-----|
14
口口口口 |①-----|
口口口口 |------|
②①①② |②-----|
口口口口 |------|
15
口口口口 |①-----|
④③②① |②-----|
口口口口 |③-----|
口口口口 |④-----|
16
口口口口 |①-----|
口口口口 |------|
口口口口 |②-----|
②①①② |------|
17
①②③④ |①-----|
口口口口 |②-----|
口口口口 |③-----|
口口口口 |④-----|
18
口口口口 |①-----|
口口口口 |------|
②①①② |②-----|
口口口口 |------|
19
口①①口 |①-----|
口②②口 |------|
口口口口 |②-----|
口口口口 |------|
20
②口口② |①-----|
口口口口 |------|
口①①口 |②-----|
口口口口 |------|
21
口口口口 |①-----|
口②①口 |②-----|
口④③口 |③-----|
口口口口 |④-----|
22
口口口口 |①-----|
口口口口 |②-----|
口口口口 |------|
口②①口 |------|
23
①①口口 |①-----|
②②口口 |------|
口口口口 |②-----|
口口口口 |------|
24
口口口口 |①-----|
口口口口 |------|
①①口口 |------|
口口口口 |------|
25
口口口口 |①-----|
①口口② |②-----|
③口口④ |③-----|
口口口口 |④-----|
26
口口口口 |①-----|
口口口口 |②-----|
口口口口 |------|
①口口② |------|
27
口口①① |①-----|
口口②② |------|
口口口口 |②-----|
口口口口 |------|
28
口口口口 |①-----|
口口口口 |------|
口口①① |------|
口口口口 |------|
29
口口口口 |①-----|
口①②口 |②-----|
口③④口 |③-----|
口口口口 |④-----|
30
口口口口 |①-----|
口口口口 |②-----|
口口口口 |------|
口①②口 |------|
31
口口口口 |①-----|
口①①口 |------|
口②②口 |②-----|
口口口口 |------|
32
口口口口 |①-----|
口口口口 |------|
②口口② |②-----|
①口口① |------|
33
②口口② |①-----|
①口口① |------|
口口口口 |②-----|
口口口口 |------|
34
口①①口 |①-----|
口口口口 |------|
口口口口 |------|
口口口口 |------|
35
口口口口 |①-----|
口③①口 |②-----|
口④②口 |③-----|
口口口口 |④-----|
36
口口口口 |①-----|
②口口② |------|
口口口口 |②-----|
口①①口 |------|
37
口口①口 |------|
口口口口 |------|
口口口口 |①-----|
口口口口 |------|
38
口口口口 |①-----|
口口①口 |------|
口口②口 |②-----|
口口口口 |------|
39
口①口口 |①-----|
口②口口 |------|
口口口口 |②-----|
口口口口 |------|
40
口口口口 |①-----|
口口口口 |②-----|
口①②口 |③-----|
口③④口 |④-----|
41
口口口口 |①-----|
口口口口 |------|
①②②口 |②-----|
口口口口 |------|
42
②口口② |①-----|
口①①口 |------|
口口口口 |②-----|
口口口口 |------|
43
口口口口 |①-----|
①口口② |②-----|
③口口④ |③-----|
口口口口 |④-----|
44
口口口口 |①-----|
口口口口 |②-----|
口①②口 |③-----|
口③④口 |④-----|
45
口口口口 |①-----|
口口口口 |------|
②口口② |②-----|
①口口① |------|
46
②口口② |①-----|
口①①口 |------|
口口口口 |②-----|
口口口口 |------|
47
口口口口 |①-----|
④③①② |②-----|
口口口口 |③-----|
口口口口 |④-----|
48
口口口口 |①-----|
口口口口 |------|
②口口② |②-----|
口①①口 |------|
49
口口口口 |------|
口口口口 |------|
口口口口 |------|
口口口口 |------|
50
口④②口 |①-----|
口③①口 |②-----|
口口口口 |③-----|
口口口口 |④-----|
51
口口口口 |①-----|
口口口口 |------|
②口口② |②-----|
口①①口 |------|
52
口口口① |------|
口口口② |------|
口口口口 |①-----|
口口口口 |②-----|
53
③口口口 |①-----|
④口口口 |②-----|
口口口① |③-----|
口口口② |④-----|
54
口口口口 |①-----|
口口口口 |②-----|
①口口口 |------|
②口口口 |------|
55
口口口口 |①-----|
④③①② |②-----|
口口口口 |③-----|
口口口口 |④-----|
56
口口口口 |①-----|
口口口口 |------|
②口口② |②-----|
口①①口 |------|
57
口口口口 |------|
口口口口 |------|
口口口口 |------|
口口口口 |------|
58
①口口① |①-----|
②口口② |------|
口口口口 |②-----|
口口口口 |------|
59
口口口口 |①-----|
口口口口 |------|
①口口① |------|
口口口口 |------|
60
口口口口 |①-----|
口①①口 |------|
口①①口 |------|
口口口口 |------|
61
口口①口 |①-----|
口口口② |②-----|
口口③口 |③-----|
口口口④ |④-----|
62
①口口口 |①-----|
口②口口 |②-----|
③口口口 |③-----|
口④口口 |④-----|
63
口口口口 |①-----|
口②②口 |------|
口①①口 |②-----|
口口口口 |------|
64
①口口① |①-----|
口口口口 |------|
口口口口 |------|
口口口口 |------|
65
口口口口 |①-----|
口口口口 |------|
口②②口 |②-----|
口①①口 |------|
66
口口口口 |①-----|
②口口② |------|
口口口口 |②-----|
①口口① |------|
67
①②③④ |①-----|
口口口口 |②-----|
口口口口 |③-----|
口口口口 |④-----|
68
口口口口 |①-----|
口口口口 |------|
②①①② |②-----|
口口口口 |------|
69
口口口口 |①-----|
④③②① |②-----|
口口口口 |③-----|
口口口口 |④-----|
70
口口口口 |①-----|
口口口口 |------|
口口口口 |②-----|
②①①② |------|
71
①②③④ |①-----|
口口口口 |②-----|
口口口口 |③-----|
口口口口 |④-----|
72
口口口口 |①-----|
口口口口 |------|
②①①② |②-----|
口口口口 |------|
73
口口口口 |①-----|
④③②① |②-----|
口口口口 |③-----|
口口口口 |④-----|
74
口口口口 |①-----|
口口口口 |------|
口口口口 |②-----|
②①①② |------|
75
①②③④ |①-----|
口口口口 |②-----|
口口口口 |③-----|
口口口口 |④-----|
76
口口口口 |①-----|
④③②① |②-----|
口口口口 |③-----|
口口口口 |④-----|
77
口口口口 |①-----|
口口口口 |②-----|
①②③④ |③-----|
口口口口 |④-----|
78
口口口口 |①-----|
口口口口 |②-----|
口口口口 |③-----|
④③②① |④-----|
79
③④口口 |①-----|
②口口口 |②-----|
①口口口 |③-----|
口口口口 |④-----|
80
口口①② |①-----|
口口口③ |②-----|
口口口④ |③-----|
口口口口 |④-----|
81
口口口口 |①-----|
口口口口 |②-----|
口③③口 |③-----|
口口②① |------|
82
①口口① |------|
口口口口 |------|
口口口口 |①-----|
口口口口 |------|


不確定度: 0

最終更新:2013年04月07日 23:25