くちばしにチェリー
EGO-WRAPPIN'

ADVANCED

Level: 7
BPM: 187
Notes: 473

全程BPM在187附近飄忽不定
1
口口口口 |------|
口口口口 |------|
口口口口 |------|
口口口口 |------|
2
①②③口 |------|
口口口口 |------|
口口口口 |------|
口口口口 |①-②-③-|
3
口口口① |①-②-③-|
⑤④③② |④-⑤-⑥-|
口⑥口口
口口口口

⑩口口⑩
口口口口
口口⑦口 |⑦---⑧-|
口⑧⑨口 |⑨---⑩-|
4
口口口口 |------|
口口口口 |------|
口①口口 |------|
口口口口 |----①-|
5
口⑧口口 |①---②-|
⑥口口⑦ |③---④-|
④口①⑤ |⑤---⑥-|
②口口③ |⑦---⑧-|
6
③口①③ |①-----|
口口口口 |②---③-|
口②②口 |------|
口口口口 |------|
7
⑦口口口 |----①-|
口⑤⑥口 |②---③-|
口③④口 |④---⑤-|
口①②口 |⑥---⑦-|
8
口③③① |①-----|
口口口口 |②---③-|
②口口② |------|
口口口口 |------|
9
口⑦口口 |----①-|
⑤口口⑥ |②---③-|
③口口④ |④---⑤-|
①口口② |⑥---⑦-|
10
③口①③ |①-----|
口口口口 |②---③-|
口②②口 |------|
口口口口 |------|
11
⑤口口⑤ |----①-|
口口①① |----②-|
口②③口 |③-----|
口④④口 |④---⑤-|
12
口口口口 |------|
口口口口 |------|
口口口口 |------|
口口口口 |------|
13
口⑦口口 |----①-|
⑤口口⑥ |②---③-|
③口口④ |④---⑤-|
①口口② |⑥---⑦-|
14
③口①③ |①-----|
口口口口 |②---③-|
口②②口 |------|
口口口口 |------|
15
⑦口口口 |----①-|
口⑤⑥口 |②---③-|
口③④口 |④---⑤-|
口①②口 |⑥---⑦-|
16
口③③① |①-----|
口口口口 |②---③-|
②口口② |------|
口口口口 |------|
17
口⑦口口 |----①-|
⑤口口⑥ |②---③-|
③口口④ |④---⑤-|
①口口② |⑥---⑦-|
18
③口①③ |①-----|
口口口口 |②---③-|
口②②口 |------|
口口口口 |------|
19
口①①口 |----①-|
口口口口 |----②-|
④口口⑤ |③---④-|
口②③口 |⑤-----|
20
②口口② |----①-|
口②②口 |------|
口口口口 |②-----|
①口口① |------|
21
口口口口 |----①-|
口⑤口口 |②-----|
①③口② |③-----|
口④口口 |④---⑤-|
22
②口口② |①-----|
③口①④ |②-----|
⑤口口口 |----③-|
口口口口 |④---⑤-|
23
口口⑥⑥ |①---②-|
⑦⑦口口 |③---④-|
口口口① |⑤---⑥-|
②④⑤③ |---⑦--|
24
口口口口 |----①-|
口口口口 |------|
口口①① |------|
口口口口 |------|
25
口①②口 |----①-|
③口口④ |②---③-|
⑤口口⑥ |④---⑤-|
口口口口 |⑥-----|
26
口口口口 |①---②-|
口②③口 |----③-|
口③②口 |------|
口①①口 |------|
27
口口①① |----①-|
②口口③ |----②-|
口④④口 |③-----|
口口口口 |④-----|
28
口口口口 |①-----|
口口口口 |------|
口口口口 |------|
口①①口 |------|
29
⑥口口口 |----①-|
口④⑤口 |②---③-|
口③口口 |----④-|
口①②口 |⑤---⑥-|
30
口口⑤① |①---②-|
②口⑤③ |③---④-|
④口口口 |------|
口口口口 |⑤-----|
31
口口口③ |①-----|
口口口④ |②-----|
口⑤①口 |③-----|
口②①② |④---⑤-|
32
③口口③ |----①-|
④口口⑤ |②---③-|
⑤口口④ |----④-|
口①②口 |----⑤-|
33
①口口① |------|
②口口② |①-----|
口口口口 |------|
口②②口 |----②-|
34
口口口口 |------|
口口口口 |------|
口口口口 |------|
口口口口 |------|
35
口口口口 |----①-|
口①②口 |②---③-|
③⑥口④ |④---⑤-|
口⑤口口 |----⑥-|
36
②口口② |----①-|
口口口口 |------|
口口口口 |②-----|
①口口① |------|
37
口口口口 |------|
⑤①②口 |----①-|
口③④口 |②---③-|
口口口口 |④---⑤-|
38
口口①① |---①--|
口口口口 |---②--|
口口口口 |------|
②②口口 |------|
39
口④⑤口 |----①-|
⑥③口口 |②---③-|
口口口口 |----④-|
口①②口 |⑤---⑥-|
40
口口⑦⑦ |①---②-|
⑥⑥口① |③---④-|
口②③口 |⑤---⑥-|
④口口⑤ |---⑦--|
41
④口口③ |------|
口④③口 |---①--|
②口口① |②---③-|
口②①口 |--④---|
42
口②②口 |①---②-|
口口口① |---③--|
口口①口 |------|
③口口③ |------|
43
口口⑥⑤ |----①-|
口③④口 |②---③-|
口①②口 |④-----|
口口口口 |⑤--⑥--|
44
口①口口 |①---②-|
口⑥口口 |--③---|
②口③口 |----④-|
口④⑤口 |⑤---⑥-|
45
①①口口 |----①-|
③口口② |------|
口③②口 |----②-|
口口口口 |----③-|
46
口口口口 |----①-|
口②②口 |------|
口口口口 |②-----|
口①①口 |------|
47
口口①① |①---②-|
⑤③④⑥ |----③-|
口⑦口口 |④---⑤-|
②②口口 |⑥---⑦-|
48
口②②口 |①-----|
口口口口 |②---③-|
③口①③ |----④-|
口④④口 |------|
49
口①口口 |------|
口口口口 |------|
口口口口 |------|
口口口口 |----①-|
50
口口①口 |①---②-|
②口口③ |③---④-|
口④⑤口 |⑤---⑥-|
⑥⑧⑧⑦ |⑦---⑧-|
51
口口口口 |------|
口口口口 |①-----|
①口口① |------|
口口口口 |------|
52
①①口口 |------|
口口②口 |----①-|
口③口口 |------|
口口口口 |②---③-|
53
口⑦口口 |①---②-|
⑥口口口 |③---④-|
口口①口 |⑤---⑥-|
④②③⑤ |----⑦-|
54
口口口口 |------|
口口口口 |------|
口口口口 |------|
口口口口 |------|
55
口④⑤口 |①-----|
⑥口①① |②-----|
口口②② |③---④-|
口口③③ |⑤---⑥-|
56
口口口口 |①---②-|
口⑤口① |③---④-|
口②③口 |----⑤-|
口④口口 |------|
57
口口口口 |------|
口①②口 |------|
口③口口 |----①-|
口口口口 |②---③-|
58
①①④④ |----①-|
③③口口 |--②---|
⑤⑤②② |③---④-|
口口口口 |---⑤--|
59
口口口口 |------|
口①①口 |------|
①口口口 |------|
口①①口 |----①-|
60
口口口口 |------|
口口口口 |------|
口口口口 |------|
口口口口 |------|
61
口⑥口口 |----①-|
④口口⑤ |②-----|
口③③口 |③---④-|
口①②口 |⑤---⑥-|
62
口口①口 |①---②-|
口②口口 |----③-|
③口口④ |④-----|
⑤口口⑤ |⑤-----|
63
①⑤⑤① |①-----|
③口口③ |②-----|
口④④口 |③-----|
口②②口 |④---⑤-|
64
口口口口 |------|
口口口口 |------|
口口口口 |------|
口口口口 |------|
65
①⑤⑤① |①-----|
③口口③ |②-----|
口④④口 |③-----|
口②②口 |④---⑤-|
66
②③口② |----①-|
口②②口 |------|
口口口口 |②-----|
口①①口 |③-----|
67
口⑦口口 |----①-|
⑤口口⑥ |②---③-|
③口口④ |④---⑤-|
①口口② |⑥---⑦-|
68
③口①③ |①-----|
口口口口 |②---③-|
口②②口 |------|
口口口口 |------|
69
⑦口口口 |----①-|
口⑤⑥口 |②---③-|
口③④口 |④---⑤-|
口①②口 |⑥---⑦-|
70
口③③① |①-----|
口口口口 |②---③-|
②口口② |------|
口口口口 |------|
71
口⑦口口 |----①-|
⑤口口⑥ |②---③-|
③口口④ |④---⑤-|
①口口② |⑥---⑦-|
72
③口①③ |①-----|
口口口口 |②---③-|
口②②口 |------|
口口口口 |------|
73
⑦口口口 |----①-|
口⑤⑥口 |②---③-|
口③④口 |④---⑤-|
口①②口 |⑥---⑦-|
74
口③③① |①-----|
口口口口 |②---③-|
②口口② |------|
口口口口 |------|
75
口口口口 |----①-|
③③①① |----②-|
口口口口 |----③-|
④④②② |----④-|
76
③③①① |----①-|
口口口口 |----②-|
④④②② |----③-|
口口口口 |----④-|
77
③口口① |----①-|
口③①口 |----②-|
④口口② |----③-|
口④②口 |----④-|
78
口③①口 |----①-|
③口口① |----②-|
口④②口 |----③-|
④口口② |----④-|
79
③③①① |----①-|
口口口口 |----②-|
口口口口 |----③-|
④④②② |----④-|
80
口口口口 |----①-|
③③①① |----②-|
④④②② |----③-|
口口口口 |----④-|
81
口口口口 |----①-|
⑥⑤④⑥ |----②-|
口口②② |③---④-|
③口①① |⑤---⑥-|
82
①口口① |------|
口口口口 |------|
口①①口 |①-----|
口口口口 |------|


不確定度: 0

最終更新:2013年04月07日 23:24