スリル
布袋寅泰

BASIC

Level: 2
BPM: 174
Notes: 201

1
口口口口 |----|
口口口口 |----|
口口口口 |----|
口口口口 |----|
2
口口口口 |①---|
口②口口 |----|
口①口口 |②---|
口口口口 |----|
3
口口口口 |①---|
口口②口 |----|
口口①口 |②---|
口口口口 |----|
4
口口口口 |①---|
口②口口 |----|
口①口口 |②---|
口口口口 |----|
5
口口口口 |①---|
口口口口 |②---|
①②③口 |③---|
口口口口 |----|
6
④③②① |①---|
口口口口 |②---|
口口口口 |③---|
口口口口 |④---|
7
口口口口 |①---|
①②③口 |②---|
口口口口 |③---|
口口口口 |----|
8
口口口口 |①---|
口口口口 |②---|
④③②① |③---|
口口口口 |④---|
9
口口口口 |①---|
口口口口 |②---|
口口口口 |③---|
①②③口 |----|
10
口口口口 |①---|
口口口口 |②---|
④③②① |③---|
口口口口 |④---|
11
口口口口 |①---|
①②③④ |②---|
口口口口 |③---|
口口口口 |④---|
12
④③②① |①---|
口口口口 |②---|
口口口口 |③---|
口口口口 |④---|
13
口口口口 |①---|
口①①口 |----|
口②②口 |②---|
口口口口 |----|
14
口口口口 |①---|
口①①口 |----|
口口口口 |----|
口口口口 |----|
15
口口口口 |①---|
口口口口 |----|
口①①口 |----|
口口口口 |----|
16
口口②口 |①---|
口①口口 |②---|
口口口口 |----|
口口口口 |----|
17
口口口口 |①---|
口口口口 |----|
口①①口 |----|
口口口口 |----|
18
口口口口 |①---|
口①①口 |----|
口口口口 |----|
口口口口 |----|
19
口口口口 |①---|
口口口口 |----|
口①①口 |----|
口口口口 |----|
20
口口口口 |①---|
①口口① |----|
口口口口 |----|
口口口口 |----|
21
口口口口 |①---|
口口②口 |--②-|
口①口口 |----|
口口口口 |----|
22
口口口口 |①---|
①口口① |----|
口口口口 |----|
口口口口 |----|
23
口口口口 |①---|
口口口口 |----|
①口口① |----|
口口口口 |----|
24
口口②口 |①---|
口①口口 |②---|
口口口口 |----|
口口口口 |----|
25
口口口口 |①---|
口口口口 |----|
口①①口 |----|
口口口口 |----|
26
口口口口 |①---|
口①①口 |----|
口口口口 |----|
口口口口 |----|
27
口口口口 |①---|
口口口口 |----|
口①①口 |----|
口口口口 |----|
28
口口口口 |①---|
①口口① |----|
口口口口 |----|
口口口口 |----|
29
口口口口 |①---|
口②口口 |--②-|
口口①口 |----|
口口口口 |----|
30
口口口口 |①---|
①口口① |----|
①口口① |----|
口口口口 |----|
31
口口口口 |----|
口口口口 |----|
口口口口 |----|
口口口口 |----|
32
口口口口 |①---|
口①①口 |----|
口①①口 |----|
口口口口 |----|
33
口口口口 |----|
口口口口 |----|
口口口口 |----|
口口口口 |----|
34
口口口口 |①---|
①口口① |----|
①口口① |----|
口口口口 |----|
35
口口口口 |----|
口口口口 |----|
口口口口 |----|
口口口口 |----|
36
口口口口 |①---|
口①①口 |----|
口①①口 |----|
口口口口 |----|
37
口口口口 |①---|
口②②口 |----|
口①①口 |②---|
口口口口 |----|
38
口口口口 |①---|
①②口口 |----|
口口口口 |②---|
口口口口 |----|
39
口口口口 |①---|
口口②① |----|
口口口口 |②---|
口口口口 |----|
40
口口口口 |①---|
口口口口 |----|
①②口口 |②---|
口口口口 |----|
41
口口口口 |①---|
口口口口 |----|
口口②① |②---|
口口口口 |----|
42
口口口口 |①---|
①②口口 |----|
口口口口 |②---|
口口口口 |----|
43
口口口口 |①---|
口口②① |----|
口口口口 |②---|
口口口口 |----|
44
口口口口 |①---|
口口口口 |----|
口①①口 |②---|
口②②口 |----|
45
口口口口 |①---|
口口口口 |----|
口口口口 |----|
①口口① |----|
46
口口口口 |①---|
①②口口 |----|
口口口口 |②---|
口口口口 |----|
47
口口口口 |①---|
口口②① |----|
口口口口 |②---|
口口口口 |----|
48
口口口口 |①---|
口口口口 |----|
①②口口 |②---|
口口口口 |----|
49
口口口口 |①---|
口口口口 |----|
口口②① |②---|
口口口口 |----|
50
口口口口 |①---|
①②口口 |----|
口口口口 |②---|
口口口口 |----|
51
口口口口 |①---|
口口②① |----|
口口口口 |②---|
口口口口 |----|
52
口口口口 |①---|
口口口口 |----|
口①①口 |②---|
口②②口 |----|
53
口口口口 |----|
口口口口 |----|
口口口口 |----|
口口口口 |----|
54
口口口口 |①---|
口①①口 |----|
口②②口 |②---|
口口口口 |----|
55
口口口口 |①---|
口口口口 |----|
口口口口 |----|
口①①口 |----|
56
口口口口 |①---|
①口口① |----|
②口口② |②---|
口口口口 |----|
57
口口口口 |①---|
口口口口 |----|
口口口口 |----|
①口口① |----|
58
口口口口 |①---|
口②②口 |----|
口①①口 |②---|
口口口口 |----|
59
口①①口 |①---|
口口口口 |----|
口口口口 |----|
口口口口 |----|
60
口口口口 |①---|
口③③口 |②---|
口②口口 |③---|
口①口口 |----|
61
口口口口 |①---|
口③③口 |②---|
口口②口 |③---|
口口①口 |----|
62
口口口口 |①---|
①口口① |----|
②口口② |②---|
口口口口 |----|
63
口口口口 |①---|
口①①口 |----|
口①①口 |----|
口口口口 |----|
64
口口口口 |①---|
口口口口 |----|
口口口口 |②---|
口①②口 |----|
65
口口口口 |①---|
口口口口 |----|
口①②口 |②---|
口口口口 |----|
66
口口②口 |①---|
口①口口 |②---|
口口口口 |----|
口口口口 |----|
67
口口口口 |①---|
口①①口 |----|
口②②口 |②---|
口口口口 |----|
68
口口口口 |①---|
①口口① |----|
口口口口 |----|
口口口口 |----|
69
口口口口 |①---|
口①①口 |----|
口②②口 |②---|
口口口口 |----|
70
口口口口 |①---|
①口口① |----|
①口口① |----|
口口口口 |----|
71
口口口口 |①---|
口口②口 |--②-|
口①口口 |----|
口口口口 |----|
72
口口口口 |①---|
口口口口 |----|
口口口口 |②---|
口①②口 |----|
73
口口口口 |①---|
口口口口 |----|
口①②口 |②---|
口口口口 |----|
74
口口②口 |①---|
口①口口 |②---|
口口口口 |----|
口口口口 |----|
75
口口口口 |①---|
口①①口 |----|
口②②口 |②---|
口口口口 |----|
76
口口口口 |①---|
①口口① |----|
口口口口 |----|
口口口口 |----|
77
口口口口 |①---|
口①①口 |----|
口②②口 |②---|
口口口口 |----|
78
口口口口 |①---|
①口口① |----|
①口口① |----|
口口口口 |----|


不確定度: 0

最終更新:2013年04月06日 23:32