スリル
布袋寅泰

ADVANCED

Level: 6
BPM: 174
Notes: 406

1
口口口口 |----|
口口口口 |----|
口口口口 |----|
口口口口 |----|
2
口口口⑥ |①-②-|
口⑤口⑥ |③-④-|
口③④口 |⑤---|
口①②口 |⑥---|
3
⑥口口口 |①-②-|
⑥口⑤口 |③-④-|
口④③口 |⑤---|
口②①口 |⑥---|
4
口⑥⑥口 |①-②-|
口⑤口口 |③-④-|
③口口④ |⑤---|
①口口② |⑥---|
5
①口口① |①---|
②口⑥② |②---|
③⑤口③ |③-④-|
口口④口 |⑤-⑥-|
6
①口口口 |①---|
②口口口 |②---|
口口口③ |③---|
口口口④ |④---|
7
口口口③ |①---|
口口④口 |②---|
①⑤⑥口 |③-④-|
②口口口 |⑤-⑥-|
8
①②口口 |①---|
口口口口 |②---|
口口口口 |③---|
口口④③ |④---|
9
口口口③ |①---|
口口④口 |②---|
口⑤⑥口 |③-④-|
①②口口 |⑤-⑥-|
10
①①口口 |①---|
②②口口 |②---|
口口④④ |③---|
口口③③ |④---|
11
口口④③ |①---|
口口④③ |②---|
①②口口 |③---|
①②口口 |④---|
12
口口口口 |①---|
口口口口 |②---|
①②②① |③---|
③④④③ |④---|
13
①口口② |①-②-|
③口口④ |③-④-|
⑤口口⑥ |⑤-⑥-|
⑦口口⑧ |⑦-⑧-|
14
口⑤⑦口 |①-②-|
口③④口 |③-④-|
口①②口 |⑤---|
口口⑥口 |⑥-⑦-|
15
②口口④ |--①-|
口口口口 |②---|
口口口口 |③-④-|
①⑤口③ |--⑤-|
16
口①口口 |①---|
③④口口 |②---|
口②②口 |----|
口口口口 |③-④-|
17
口口口① |①---|
口口②① |②-③-|
口③口口
口口口口

⑤口口⑤
口口口口
口口口口 |--④-|
口口④口 |--⑤-|
18
口口口口 |----|
口②口口 |----|
口口①口 |----|
口口口口 |①-②-|
19
口口①① |①---|
口口口口 |②-③-|
口②口口
口口③③

口⑤⑤口
口⑤⑤口
口口口口 |--④-|
④④口口 |--⑤-|
20
口口口口 |----|
口口口口 |----|
口口口口 |----|
口口口口 |----|
21
口口③③ |①-②-|
口口口口 |--③-|
口②口口 |----|
口①口口 |----|
22
口⑤⑦口 |①-②-|
口③④口 |③-④-|
口①②口 |⑤---|
口口⑥口 |⑥-⑦-|
23
②口口④ |--①-|
口口口口 |②---|
口口口口 |③-④-|
①⑤口③ |--⑤-|
24
口①口口 |①---|
③④口口 |②---|
口②②口 |----|
口口口口 |③-④-|
25
口口口① |①---|
口口②① |②-③-|
口③口口
口口口口

⑤口口⑤
口口口口
口口口口 |--④-|
口口④口 |--⑤-|
26
口口口口 |----|
口②口口 |----|
口口①口 |----|
口口口口 |①-②-|
27
口口①① |①---|
口口口口 |②-③-|
口②口口
口口③③

口⑤⑤口
口⑤⑤口
口口口口 |--④-|
④④口口 |--⑤-|
28
口口口口 |----|
口口口口 |----|
口口口口 |----|
口口口口 |----|
29
③口口③ |①-②-|
④口口④ |--③-|
①口口① |--④-|
口②②口 |----|
30
口口口口 |①---|
口②①口 |--②-|
口①②口 |----|
口口口口 |----|
31
口口口口 |----|
口口口口 |----|
口口口口 |----|
口口口口 |----|
32
③③③③ |①---|
口口口口 |--②-|
口口②② |----|
①①口口 |③---|
33
口口口口 |----|
口口口口 |----|
口口口口 |----|
口口口口 |----|
34
口口口口 |①---|
口②①口 |--②-|
口①②口 |----|
口口口口 |----|
35
口口口口 |----|
口口口口 |----|
口口口口 |----|
口口口口 |----|
36
③③③③ |①---|
口口口口 |--②-|
口口②② |----|
①①口口 |③---|
37
⑧口口⑦ |①-②-|
⑥口口⑤ |③-④-|
④口口③ |⑤-⑥-|
②口口① |⑦-⑧-|
38
口口口口 |①---|
④口①⑤ |②---|
口口②口 |③---|
口口③口 |④-⑤-|
39
口口口口 |①-②-|
口①②口 |--③-|
口③③口 |----|
口口口口 |----|
40
口口口口 |①-②-|
①②③④ |③-④-|
⑦⑤口⑥ |⑤---|
口口口口 |⑥-⑦-|
41
口口③口 |①--②|
口口口口 |--③-|
口口①口 |----|
口②口口 |----|
42
口口口口 |①---|
口①口口 |②---|
口②口口
口口口口

口口口口
口⑤口口
口口④口 |③---|
口③口口 |④-⑤-|
43
口口①⑤ |①--②|
④口口③ |--③-|
②口口口 |--④-|
口口口口 |--⑤-|
44
口口口口 |①---|
口①②口 |----|
口①②口 |②---|
口口口口 |----|
45
口口口口 |①---|
口口口口 |----|
口口口口 |----|
①口口① |----|
46
口口口口 |①---|
④口①⑤ |②---|
口口②口 |③---|
口口③口 |④-⑤-|
47
口③③口 |①-②-|
口①②口 |--③-|
口口口口 |----|
口口口口 |----|
48
口口口口 |①-②-|
①②③④ |③-④-|
⑦⑤口⑥ |⑤---|
口口口口 |⑥-⑦-|
49
口口③口 |①--②|
口口口口 |--③-|
口口①口 |----|
口②口口 |----|
50
口口口口 |①---|
口①口口 |②---|
口②口口
口口口口

口口口口
口⑤口口
口口④口 |③---|
口③口口 |④-⑤-|
51
口口①⑤ |①--②|
④口口③ |--③-|
②口口口 |-④--|
口口口口 |-⑤--|
52
①口口口 |①---|
口口②口 |--②-|
口③口口 |③---|
口口口口 |----|
53
口口口口 |----|
①②口口 |----|
①②口口 |①---|
口口口口 |②---|
54
口口①① |①---|
口口口口 |----|
口口口口 |②---|
口口②② |----|
55
口口口口 |①---|
口口③② |----|
口口③② |②---|
①①口口 |③---|
56
②②③口 |①---|
口④口口 |②---|
口口口口 |③-④-|
①①⑤⑤ |--⑤-|
57
口口口口 |----|
口②口口 |----|
①②口口 |①---|
①口口口 |②---|
58
口③①① |①---|
⑤口④口 |②---|
⑤口口口 |③-④-|
口口②② |--⑤-|
59
口口口口 |----|
口口②口 |----|
口口②① |①---|
口口口① |②---|
60
①口口② |①-②-|
③口口④ |③-④-|
口口口口 |⑤---|
⑤⑤口口 |----|
61
②口口① |①-②-|
④口口③ |③-④-|
口口口口 |⑤---|
口口⑤⑤ |----|
62
②②①① |①---|
口口口口 |----|
口口口口 |②---|
①口口② |----|
63
口口④④ |①-②-|
口③口口 |③-④-|
口口②口 |----|
口①口口 |----|
64
口⑤⑦口 |①-②-|
口③④口 |③-④-|
口①②口 |⑤---|
口口⑥口 |⑥-⑦-|
65
②口口④ |--①-|
口口口口 |②---|
口口口口 |③-④-|
①⑤口③ |--⑤-|
66
口①口口 |①---|
③④口口 |②---|
口②②口 |----|
口口口口 |③-④-|
67
口口口① |①---|
口口②① |②-③-|
口③口口
口口口口

⑤口口⑤
口口口口
口口口口 |--④-|
口口④口 |--⑤-|
68
口口口口 |----|
口②口口 |----|
口口①口 |----|
口口口口 |①-②-|
69
口口①① |①---|
口口口口 |②-③-|
口②口口
口口③③

口⑤⑤口
口⑤⑤口
口口口口 |--④-|
④④口口 |--⑤-|
70
口口口口 |----|
口口口口 |----|
口口口口 |----|
口口口口 |----|
71
口口③③ |①-②-|
口口口口 |--③-|
口②口口 |----|
口①口口 |----|
72
口⑤⑦口 |①-②-|
口③④口 |③-④-|
口①②口 |⑤---|
口口⑥口 |⑥-⑦-|
73
②口口④ |--①-|
口口口口 |②---|
口口口口 |③-④-|
①⑤口③ |--⑤-|
74
口①口口 |①---|
③④口口 |②---|
口②②口 |----|
口口口口 |③-④-|
75
口口口① |①---|
口口②① |②-③-|
口③口口
口口口口

⑤口口⑤
口口口口
口口口口 |--④-|
口口④口 |--⑤-|
76
口口口口 |----|
口②口口 |----|
口口①口 |----|
口口口口 |①-②-|
77
口口①① |①---|
口口口口 |②-③-|
口②口口
口口③③

口⑤⑤口
口⑤⑤口
口口口口 |--④-|
④④口口 |--⑤-|


不確定度: 0

最終更新:2013年04月06日 23:31