a burning bullet
LAST ALLIANCE

BASIC

Level: 2
BPM: 209
Notes: 146

1
口口口口 |----|
口口口口 |----|
口口口口 |----|
口口口口 |----|
2
口口口口 |----|
口口口口 |----|
口口口口 |----|
口口口口 |----|
3
口口口口 |----|
口口口口 |----|
口口口口 |----|
口口口口 |----|
4
口口口口 |----|
口口口口 |----|
口口口口 |----|
口口口口 |----|
5
口口口口 |----|
口口口口 |----|
口口口口 |----|
口口口口 |----|
6
口口口口 |----|
口口口口 |----|
口口口口 |----|
口口口口 |----|
7
口口口口 |----|
口口口口 |----|
口口口口 |----|
口口口口 |----|
8
口口口口 |----|
口口口口 |----|
口口口口 |----|
口口口口 |----|
9
口口口口 |----|
口口口口 |----|
口口口口 |----|
口口口口 |----|
10
口口口口 |①---|
口口口口 |----|
①①口口 |----|
口口口口 |----|
11
口口口口 |①---|
口口口口 |----|
口口①① |----|
口口口口 |----|
12
口口口口 |①---|
①①口口 |----|
口口口口 |----|
口口口口 |----|
13
口口口口 |①---|
口口①① |----|
口口口口 |----|
口口口口 |----|
14
口口口口 |①---|
口口口口 |----|
①②口口 |②---|
口口口口 |----|
15
口口口口 |①---|
口口口口 |----|
口口①② |②---|
口口口口 |----|
16
口口口口 |①---|
口口②① |----|
口口口口 |②---|
口口口口 |----|
17
口口口口 |①---|
②①口口 |----|
口口口口 |②---|
口口口口 |----|
18
口口口口 |①---|
口口口口 |----|
①①口口 |----|
口口口口 |----|
19
口口口口 |①---|
口口口口 |----|
口口①① |----|
口口口口 |----|
20
口口口口 |①---|
①①口口 |----|
口口口口 |----|
口口口口 |----|
21
口口口口 |①---|
口口①① |----|
口口口口 |----|
口口口口 |----|
22
口口口口 |①---|
口口口口 |----|
①②口口 |②---|
口口口口 |----|
23
口口口口 |①---|
口口口口 |----|
口口①② |②---|
口口口口 |----|
24
口口口口 |①---|
口口②① |----|
口口口口 |②---|
口口口口 |----|
25
口口口口 |①---|
②①口口 |----|
口口口口 |②---|
口口口口 |----|
26
口口口口 |①---|
口口口口 |----|
口口口口 |----|
口①①口 |----|
27
口口口口 |①---|
口口口口 |----|
口①①口 |----|
口口口口 |----|
28
口口口口 |①---|
口口口口 |----|
①口口① |----|
口口口口 |----|
29
口口口口 |①---|
①口口① |----|
口口口口 |----|
口口口口 |----|
30
口口口口 |①---|
口①①口 |----|
口口口口 |----|
口口口口 |----|
31
口①①口 |①---|
口口口口 |----|
口口口口 |----|
口口口口 |----|
32
口口口口 |①---|
①口口① |----|
口口口口 |----|
口口口口 |----|
33
口口口口 |①---|
口口口口 |----|
①口口① |----|
口口口口 |----|
34
口口口口 |①---|
口口口口 |----|
口①②口 |②---|
口口口口 |----|
35
口口口口 |①---|
口①②口 |----|
口口口口 |②---|
口口口口 |----|
36
口口口口 |①---|
口口口口 |----|
①口口② |②---|
口口口口 |----|
37
口口口口 |①---|
①口口② |----|
口口口口 |②---|
口口口口 |----|
38
口②口口 |①---|
口①口口 |----|
口口口口 |②---|
口口口口 |----|
39
口口②口 |①---|
口口①口 |----|
口口口口 |②---|
口口口口 |----|
40
口口口口 |①---|
口口口口 |----|
口①①口 |----|
口口口口 |----|
41
口口口口 |----|
口口口口 |----|
口口口口 |----|
口口口口 |----|
42
口口口口 |①---|
①口口① |----|
口口口口 |----|
口口口口 |----|
43
口口口口 |①---|
口口口口 |----|
①口口① |----|
口口口口 |----|
44
口口口口 |①---|
口口口口 |----|
口①①口 |----|
口口口口 |----|
45
口口口口 |①---|
口①①口 |----|
口口口口 |----|
口口口口 |----|
46
口口口口 |①---|
口口口口 |----|
口①②口 |②---|
口口口口 |----|
47
口口口口 |①---|
口①②口 |----|
口口口口 |②---|
口口口口 |----|
48
口①②口 |①---|
口口口口 |----|
口口口口 |②---|
口口口口 |----|
49
口口口口 |①---|
口①②口 |----|
口口口口 |②---|
口口口口 |----|
50
口口口口 |①---|
口口口口 |----|
①口口① |----|
口口口口 |----|
51
口口口口 |----|
口口口口 |----|
口口口口 |----|
口口口口 |----|
52
口口口口 |①---|
口口口口 |----|
口口口口 |----|
①口口① |----|
53
口口口口 |----|
口口口口 |----|
口口口口 |----|
口口口口 |----|
54
口口口口 |①---|
口①②口 |----|
口口口口 |②---|
口口口口 |----|
55
口口口口 |①---|
口口口口 |----|
口①②口 |②---|
口口口口 |----|
56
口口口口 |①---|
口口口口 |----|
口口口口 |----|
口①①口 |----|
57
口口口口 |①---|
①口口① |----|
②口口② |②---|
口口口口 |----|
58
口口口口 |①---|
口口口口 |----|
口口口口 |----|
口①①口 |----|
59
口口口口 |①---|
口口口口 |----|
口①①口 |----|
口口口口 |----|
60
口口口口 |①---|
口①①口 |----|
口口口口 |----|
口口口口 |----|
61
口①①口 |①---|
口口口口 |----|
口口口口 |----|
口口口口 |----|
62
口口口口 |①---|
①口口① |----|
口口口口 |----|
口口口口 |----|
63
口口口口 |①---|
口口口口 |----|
①口口① |----|
口口口口 |----|
64
①②口口 |①---|
口口口口 |----|
口口口口 |②---|
口口口口 |----|
65
口口①② |①---|
口口口口 |----|
口口口口 |②---|
口口口口 |----|
66
口口口口 |①---|
口口口口 |----|
口口②① |②---|
口口口口 |----|
67
口口口口 |①---|
口口口口 |----|
②①口口 |②---|
口口口口 |----|
68
口口口口 |①---|
口①②口 |----|
口口口口 |②---|
口口口口 |----|
69
口口口口 |①---|
口口口口 |----|
口①②口 |②---|
口口口口 |----|
70
口口口口 |①---|
口口口口 |----|
②口口② |②---|
①口口① |----|
71
口口口口 |①---|
口②②口 |----|
口①①口 |②---|
口口口口 |----|
72
①②口口 |①---|
口口口口 |----|
口口口口 |②---|
口口口口 |----|
73
口口①② |①---|
口口口口 |----|
口口口口 |②---|
口口口口 |----|
74
口口口口 |①---|
口口口口 |----|
口口②① |②---|
口口口口 |----|
75
口口口口 |①---|
口口口口 |----|
②①口口 |②---|
口口口口 |----|
76
口口口口 |①---|
口①②口 |----|
口口口口 |②---|
口口口口 |----|
77
口口口口 |①---|
口口口口 |----|
口①②口 |②---|
口口口口 |----|
78
口口口口 |①---|
口口口口 |----|
②口口② |②---|
①口口① |----|
79
②口口② |①---|
①口口① |----|
口口口口 |②---|
口口口口 |----|
80
口口口口 |①---|
口①①口 |----|
口口口口 |----|
口口口口 |----|


不確定度: 0

最終更新:2013年04月06日 23:30