Dance My Generation
ゴールデンボンバー

EXTREME

Level: 9
BPM: 133
Notes: 694

1
口口口口 |----|
口口口口 |----|
口口口口 |----|
口口口口 |----|
2
口口口口 |----|
口口口口 |----|
口口口口 |----|
口口口口 |----|
3
口②口口 |①---|
①口口口 |②---|
口①口口
口②①口

口口④口
⑤⑥③口
口口口口 |③---|
口口口口 |④-⑤⑥|
4
口口⑤④ |-①-②|
⑥⑦口③ |-③④⑤|
①⑥⑦口 |⑥---|
口②⑥⑦ |⑦---|
5
②①口② |①---|
④口口③ |②---|
口④口口 |③---|
口①④口 |④---|
6
②⑩③⑪ |①②-③|
口⑦⑥⑤ |④⑤⑥⑦|
⑧⑫⑫⑨ |⑧⑨⑩⑪|
④口口① |⑫---|
7
口④④口 |①-②③|
①⑤⑤① |④⑤--|
口口口口
①③②①

⑥⑨⑨⑥
口⑩⑩口
⑥⑦⑧⑥ |⑥--⑦|
口口口口 |⑧-⑨⑩|
8
⑩⑦⑩⑪ |①-②③|
②⑧⑨⑤ |④⑤⑥-|
④⑦口口 |⑦-⑧⑨|
①⑥③① |⑩-⑪-|
9
口④口口 |①-②③|
①口⑤① |④⑤--|
口口口口
①③②①

⑥⑨⑨⑥
口⑩⑩口
⑥⑦⑧⑥ |⑥--⑦|
口口口口 |⑧-⑨⑩|
10
⑩口⑦⑩ |①-②③|
⑨口⑧⑧ |④⑤⑥-|
⑤⑥⑨④ |⑦-⑧-|
①②③① |⑨-⑩-|
11
口④④口 |①-②③|
口⑤⑤口 |④⑤--|
口口口口
①③②①

⑥⑨⑨⑥
口⑩⑩口
⑥⑦⑧⑥ |⑥--⑦|
口口口口 |⑧-⑨⑩|
12
⑩⑦⑩⑪ |①-②③|
②⑧⑨⑤ |④⑤⑥-|
④⑦口口 |⑦-⑧⑨|
①⑥③① |⑩-⑪-|
13
口④口口 |①-②③|
①口⑤① |④⑤--|
口②②口
①③③①

⑥⑨⑨⑥
⑦口口⑦
⑥口⑧⑥ |⑥--⑦|
⑦口口⑦ |⑧-⑨-|
14
⑤口口⑥ |--①②|
⑦④①⑧ |③④--|
⑨②口⑩ |⑤⑥⑦⑧|
⑪口③口 |⑨⑩⑪-|
15
口口口口 |①-②-|
口①口口 |③-④-|
④③②口
口②③口

口⑥⑧口
口⑦口⑤
口口⑧口 |⑤-⑥⑦|
口口口口 |--⑧-|
16
⑦⑥口⑦ |①-②-|
⑤口②⑤ |③-④-|
①口口① |⑤-⑥⑦|
③④②③ |----|
17
口口口口 |--①-|
①②口口 |②-③④|
③①口口
口口口④

口口口口
口⑧⑥口
口⑦⑥口 |⑤--⑥|
口口⑤口 |-⑦-⑧|
18
口④②⑤ |①-②-|
①口口③ |③-④⑤|
③口口①
口②④口

口口口口
口⑦口口
口口⑥⑨ |⑥⑦--|
口口口⑧ |⑧-⑨-|
19
口口口口 |①-②-|
②③口④ |③-④-|
③②④口
口①口口

口口口口
⑨口⑤口
口⑧口⑤ |⑤-⑥⑦|
口⑥⑦口 |--⑧⑨|
20
②①口口 |①-②-|
口②口③ |③-④⑤|
⑤口③④
口口口口

口口⑦口
口口口口
口口⑧口 |⑥--⑦|
口⑥口口 |--⑧-|
21
口③④② |①-②-|
口口口口 |③-④-|
④②口③
口口①口

⑤口口⑨
口⑦口⑧
口口⑤口 |⑤-⑥⑦|
口⑥口⑥ |-⑧-⑨|
22
⑤口口口 |①-②-|
①口②口 |③④-⑤|
口①④③
②口①口

口⑥口口
口口口口
口⑧口口 |⑥-⑦⑧|
口⑦口口 |----|
23
口口口口 |①-②-|
①口口口 |③-④-|
④口②③
口口③②

口⑥⑧口
口⑦口⑤
口口⑧口 |⑤-⑥⑦|
口口口口 |--⑧-|
24
⑦⑥口⑦ |①-②-|
⑤口②⑤ |③-④-|
①口口① |⑤-⑥⑦|
③④②③ |----|
25
口口口口 |--①-|
①②口口 |②-③-|
③①口口
口口口口

口口口口
口⑧⑥口
口⑦⑥口 |④-⑤⑥|
口口④⑤ |-⑦-⑧|
26
口③口口 |①-②-|
①口口② |③-④⑤|
①⑤口②
④口口口

口口⑥⑥
口口⑥口
口口⑥⑥ |----|
口口⑥口 |⑥---|
27
口口口口 |①-②-|
②③口④ |③-④-|
③②④口
口①口口

口口口口
⑨口⑤口
口⑧口⑤ |⑤-⑥⑦|
口⑥⑦口 |-⑧-⑨|
28
②①口口 |①-②-|
口②口③ |③-④⑤|
⑤口③④
口口口口

口口⑦口
口口口口
口口⑧口 |⑥--⑦|
口⑥口口 |--⑧-|
29
口③④② |①-②-|
口口口口 |③-④-|
④②口③
口口①口

⑤口口口
口⑦口口
口⑧⑤⑨ |⑤-⑥⑦|
口⑥⑩⑥ |⑧-⑨⑩|
30
①口口口 |----|
口口口口 |①---|
口口口口
口口口口

⑨口口②
口⑧③口
口④⑦口 |②③④⑤|
⑤口口⑥ |⑥⑦⑧⑨|
31
口口①口 |①---|
口口②口 |--②-|
口③口口 |③--④|
④④口⑤ |--⑤-|
32
口口口④ |①--②|
口口口③ |--③-|
口口①② |④---|
⑤口口口 |⑤---|
33
③③③③ |①---|
口口口口 |②-③-|
口口口口
口①②口

口口口口
口④④④
口口⑤口 |④--⑤|
口口⑥口 |--⑥-|
34
④④④④ |①---|
③③③⑤ |②---|
口②口口 |③---|
口①口口 |④-⑤-|
35
③口口③ |①---|
④口口④ |②-③-|
⑥⑥口① |④--⑤|
②口口⑤ |--⑥-|
36
②②①口 |①--②|
②①①⑤ |--③-|
口④口口 |④---|
③③口口 |--⑤-|
37
口口口口 |①-②③|
口⑥⑤口 |-④⑤⑥|
口④口③
口③②①

⑦口⑨⑨
⑧口口⑩
⑧口⑩口 |⑦-⑧-|
⑦口⑨⑨ |⑨-⑩-|
38
口①⑨⑨ |①②③-|
④②口口 |④⑤⑥-|
⑤③⑧⑦ |⑦-⑧⑨|
⑥口⑦⑧ |----|
39
③①口口 |①--②|
②④②④ |--③-|
③①④口 |④---|
口④口④ |----|
40
①口口② |①---|
①口口② |②---|
①口口②
①口口②

⑥⑤④⑥
口④⑤口
⑥口③⑥ |③④-⑤|
口③口口 |--⑥-|
41
口口口口 |①-②-|
②口口② |③-④⑤|
口①⑤口
③④①③

口⑧⑦口
口⑥⑨口
口⑧口口 |⑥⑦-⑧|
口口⑨口 |--⑨-|
42
①口口② |①---|
①口口② |②---|
①口口②
①口口②

⑥③口⑥
口口③口
⑥④⑤⑥ |③④-⑤|
口⑤④口 |--⑥-|
43
口口②口 |①-②③|
口①口② |④-⑤⑥|
口③口口
⑤⑥④⑤

口⑧口口
口⑨口口
口口⑦口 |⑦-⑧⑨|
口口口口 |----|
44
①口口② |①---|
①口口② |②---|
①口口②
①口口②

⑥⑤④⑥
口④⑤口
⑥口③⑥ |③④-⑤|
口③口口 |--⑥-|
45
口口口口 |①-②-|
②口口② |③-④⑤|
口①⑤口
③④①③

⑧口⑦⑧
口⑥口口
口⑨口口 |⑥⑦-⑧|
⑨口口口 |--⑨-|
46
口口口口 |①-②③|
口⑤口② |④⑤--|
①口③口
口①口④

口口口⑦
⑥口⑦⑧
口⑥⑧⑦ |⑥--⑦|
⑥口口⑧ |--⑧-|
47
口口口口 |--①-|
①口口口 |----|
口①口口
①口口口

口口②口
口口⑤③
口⑥④口 |②③④-|
口口⑦口 |⑤⑥⑦-|
48
①口口② |①---|
①口口② |②---|
①口口②
①口口②

⑥③⑤⑥
口③④口
⑥④③⑥ |③④-⑤|
口⑤③口 |--⑥-|
49
口④口④ |--①②|
①⑥⑤⑥ |③---|
口②⑦口 |④⑤⑥⑦|
口口③口 |----|
50
①口口② |①---|
①口口② |②---|
①口口②
①口口②

⑥③口⑥
口口③口
⑥④⑤⑥ |③④-⑤|
口⑤④口 |--⑥-|
51
口①①③ |--①-|
②⑤⑤② |②---|
口口口口 |③-④⑤|
②④④② |----|
52
①口口② |①---|
①口口② |②---|
①口口②
①口口②

⑥③⑤⑥
口③④口
⑥④③⑥ |③④-⑤|
口⑤③口 |--⑥-|
53
口口口口 |--①②|
①口口口 |③---|
口②口口
口口③口

口口④⑤
口口⑤④
⑥⑦口口 |④⑤-⑥|
⑦⑥口口 |--⑦-|
54
口口口口 |①---|
口①口口 |----|
口口①口
口口口口

口④口口
④③②口
口②③④ |②--③|
口口④口 |--④-|
55
口口口① |--①②|
口④②③ |③④--|
①①口口
口①口口

⑤⑦⑤⑦
口口口口
口口口口 |⑤--⑥|
⑥口⑥口 |--⑦-|
56
口口③③ |①---|
口②②③ |②---|
①①②口 |③--④|
④①口口 |----|
57
①①口口 |①---|
①口口口 |----|
口口口① |----|
口口①① |----|


不確定度: 0

最終更新:2013年10月17日 15:58