此岸の戯事
Akhuta

EXTREME

Level: 10
BPM: 195
Notes: 884

1
口口口口 |----|
口口口口 |----|
口口口口 |----|
口口口口 |----|
2
⑨口④⑦ |①-②-|
⑩口②⑤ |③-④⑤|
⑥口口⑪ |⑥-⑦-|
口③①⑧ |⑧⑨⑩⑪|
3
口②⑥⑩ |①②③④|
口③⑦⑪ |⑤⑥⑦⑧|
⑫⑧④口 |⑨⑩⑪⑫|
⑨⑤①⑬ |⑬---|
4
①①④口 |①---|
⑤口口口 |②-③-|
⑥⑥口② |④-⑤-|
⑤口③口 |--⑥-|
5
④①④口 |①-②-|
口②⑤口 |③---|
口口口⑥ |④---|
口口③③ |⑤-⑥-|
6
口口⑤口 |①---|
①口口③ |②-③-|
口口②⑥ |④-⑤-|
口①口④ |--⑥-|
7
①⑦⑤③ |①-②-|
⑤③①⑦ |③-④-|
口口口口 |⑤-⑥-|
②⑧⑥④ |⑦-⑧-|
8
口口口③ |①---|
口③④口 |②-③-|
口⑤①① |--④-|
②口口⑥ |⑤-⑥-|
9
⑤②口③ |①-②-|
①⑤口⑦ |③-④-|
⑥口④口 |⑤---|
口口口口 |⑥-⑦-|
10
口①口③ |①---|
①口③⑤ |②-③-|
口口口口 |--④-|
口④②⑤ |⑤---|
11
①②④⑦ |①②③④|
③⑤⑧⑪ |⑤⑥⑦⑧|
⑥⑨⑫⑭ |⑨⑩⑪⑫|
⑩⑬⑮⑯ |⑬⑭⑮⑯|
12
①①口④ |①-②-|
⑥②④口 |③-④-|
③⑦口口 |⑤-⑥-|
⑤⑧口口 |⑦-⑧-|
13
口口⑤口 |①-②-|
口②⑥⑤ |③-④-|
④口③⑥ |⑤---|
口⑦①① |⑥-⑦-|
14
①口④口 |①-②-|
①⑤口④ |③-④-|
⑥⑧②⑦ |⑤-⑥-|
③口口口 |⑦-⑧-|
15
口③⑥⑨ |①-②③|
②⑤⑧口 |④-⑤⑥|
口口口口 |⑦-⑧⑨|
⑩①④⑦ |⑩---|
16
①口④口 |①-②-|
②口⑥④ |③-④-|
①口⑦口 |⑤-⑥-|
口⑤③⑧ |⑦-⑧-|
17
口⑤口⑥ |①-②-|
①口口③ |③-④-|
口②口④ |⑤---|
⑥口⑤口 |⑥---|
18
①⑤口口 |①-②-|
⑧④口口 |③-④-|
③⑦口口 |⑤-⑥-|
⑥②口口 |⑦-⑧-|
19
①口口③ |①-②-|
口④口③ |③---|
④口③口 |④---|
④②口口 |----|
20
①③①③ |①---|
口口口口 |②---|
口口口口 |③---|
口②④口 |④---|
21
②④②④ |①-②-|
①③①③ |③-④-|
⑧⑦⑥⑤ |⑤-⑥-|
⑧⑦⑥⑤ |⑦-⑧-|
22
口③②口 |①---|
①口①口 |②-③-|
口口口口
口口口口

⑤口口口
口④⑥④
口口口口 |④---|
口口口口 |⑤-⑥-|
23
口②③口 |①---|
④⑤⑥⑦ |②-③-|
口①①口 |④-⑤-|
④⑤⑥⑦ |⑥-⑦-|
24
①口口③ |①---|
口口口口 |②---|
④①③② |③---|
口口口口 |④---|
25
⑧⑦⑥⑤ |①-②-|
口①②口 |③-④-|
口③④口 |⑤-⑥-|
⑧⑦⑥⑤ |⑦-⑧-|
26
口口④口 |①---|
①口⑤③ |②-③-|
①⑥②口 |④---|
口口口口 |⑤-⑥-|
27
口①口口 |①---|
①②口④ |②---|
②口口④ |③---|
③③口口 |④---|
28
口①①口 |①---|
口③⑥口 |②---|
④口口口 |③-④-|
口⑤②口 |⑤-⑥-|
29
②①③④ |①-②-|
口口口口 |③-④-|
口口口口
口口口口

口⑧口口
⑥口口口
口⑦口口 |⑤-⑥-|
⑤口口口 |⑦-⑧-|
30
口口口口 |①-②-|
口口⑥⑧ |③-④-|
⑤口①③ |⑤-⑥-|
口⑦④② |⑦-⑧-|
31
②④口⑤ |①-②-|
③①⑦口 |③-④-|
口口口⑥ |⑤-⑥-|
口口⑧口 |⑦-⑧-|
32
①口口④ |①---|
③⑤口② |②---|
①口口④ |③---|
③口口② |④-⑤-|
33
①口口⑧ |①-②-|
⑥口口③ |③-④-|
①④②⑦ |⑤-⑥-|
⑤口口③ |⑦-⑧-|
34
①口口口 |①---|
口口口② |②---|
①口口口
口口口②

⑥⑤⑤⑥
口口④口
口④口口 |③-④-|
口③③口 |⑤-⑥-|
35
口口⑥口 |①---|
④①③⑦ |②---|
⑤口②② |③-④⑤|
①口③口 |⑥-⑦-|
36
口①口口 |①---|
口①口口 |②---|
口口②②
口口口口

口口④口
口⑤口口
口口口口 |③---|
③③口口 |④-⑤-|
37
口③口口 |①---|
④口口② |--②-|
口⑤口口 |③-④-|
⑥口①① |⑤-⑥-|
38
口口①口 |①---|
④④①口 |②-③-|
②口口⑥ |④---|
口口③⑤ |⑤-⑥-|
39
口口口口 |①---|
口口口口 |--②-|
口②口口
①①口口

口③④⑤
口口口⑥
口口口⑦ |③④⑤⑥|
口⑩⑨⑧ |⑦⑧⑨⑩|
40
口口③③ |①---|
口②①⑤ |--②-|
④口①口 |③---|
口口口口 |④-⑤-|
41
①口口口 |①---|
①口口⑤ |--②-|
口②口口 |③---|
④口③③ |④-⑤-|
42
口①①② |①---|
⑥口③口 |②-③-|
口⑦⑤② |④-⑤-|
⑥④口④ |⑥-⑦-|
43
①口①③ |①-②-|
⑦②④口 |③-④-|
口⑧⑥③ |⑤-⑥-|
⑦⑤口⑤ |⑦-⑧-|
44
口③⑧口 |①-②-|
⑨⑩⑤④ |③-④⑤|
①口口⑥ |⑥-⑦-|
口⑦②口 |⑧-⑨⑩|
45
⑧口口⑦ |①-②-|
口口口③ |③-④⑤|
⑧口①⑦ |⑥-⑦-|
②⑥⑤④ |⑧---|
46
⑥①口⑥ |①-②-|
口⑤②口 |③---|
口②⑤口 |④-⑤-|
③口④③ |⑥---|
47
口③①口 |①-②-|
①⑤⑤③ |③-④-|
④⑤⑤② |⑤---|
⑥②④⑥ |⑥---|
48
①口口① |①---|
②②口③ |----|
口口口口 |②---|
口口口③ |③---|
49
⑥①口⑥ |①-②-|
④④口口 |③-④-|
①口③② |⑤---|
口⑤②口 |⑥---|
50
口④⑧口 |①-②-|
④⑤①⑧ |③-④-|
⑦口口③ |⑤-⑥-|
⑥口口② |⑦-⑧-|
51
②口口③ |①-②-|
口⑤④口 |③-④-|
口①⑥⑥ |⑤---|
⑤口口口 |⑥---|
52
口口口口 |①---|
②口②口 |----|
口③口③ |②---|
口①①口 |③---|
53
④④③口 |①---|
口口口② |②-③-|
⑤口口⑤ |④---|
①①口口 |⑤---|
54
⑦口口③ |①-②-|
⑦⑥②③ |③-④-|
口⑧④口 |⑤-⑥-|
⑤口口① |⑦-⑧-|
55
口②③口 |①-②-|
口口④③ |③-④-|
⑤口口① |⑤---|
⑥⑤口⑥ |⑥---|
56
①口口① |①---|
②②口③ |----|
口口口口 |②---|
口口口③ |③---|
57
⑥①口⑥ |①-②-|
④④口口 |③-④-|
①口③② |⑤---|
口⑤②口 |⑥---|
58
口④⑧口 |①-②-|
④⑤①⑧ |③-④-|
⑦口口③ |⑤-⑥-|
⑥口口② |⑦-⑧-|
59
②口口③ |①-②-|
⑤口④口 |③-④-|
口①⑥⑥ |⑤---|
⑤口口口 |⑥---|
60
口口口口 |①---|
②②口口 |----|
口口③③ |②---|
口①①口 |③---|
61
⑥①口⑥ |①-②-|
口口②口 |③-④-|
口③口口 |⑤---|
口⑤④口 |⑥---|
62
口口②④ |①---|
口口口口 |②---|
①③口口 |③---|
口口②④ |④---|
63
①①口口 |①---|
②②口口 |②---|
口口口口 |③---|
③③口口 |----|
64
口①①口 |----|
口⑤④口 |①---|
口口口口 |②-③-|
口③②口 |④-⑤-|
65
①③③② |①---|
口口④④ |②---|
④①②② |③---|
①口③口 |④---|
66
口③②④ |①---|
①①口口 |--②-|
④①③口 |③---|
②④③口 |④---|
67
①④③口 |①---|
①②①④ |②---|
口②④③ |③---|
②口③口 |④---|
68
⑤口③④ |①---|
①③①口 |②-③-|
①②口④ |④---|
②⑤口口 |⑤---|
69
口①口④ |①---|
②④①③ |②---|
②③③④ |③---|
②口①口 |④---|
70
③④①口 |①---|
口⑤①④ |②-③-|
⑤③口⑤ |④---|
②②①口 |⑤---|
71
③③①② |①---|
①④①③ |②---|
④②②④ |③---|
④②①③ |④---|
72
⑤④①② |①---|
①⑤①③ |②-③-|
口③②⑤ |④---|
口口口④ |⑤---|
73
口口口② |①---|
口口①② |②---|
口口口口
口①①口

⑤④③口
⑥口口口
⑦口口口 |③④⑤⑥|
⑧⑨⑩口 |⑦⑧⑨⑩|
74
口口口② |①---|
③口口④ |--②-|
口口口② |----|
口口口① |③-④-|
75
②口口口 |①②③④|
口口口口 |⑤⑥⑦⑧|
①③口⑦
④⑤⑥⑧

口⑫⑪口
⑭⑬⑩⑯
⑮口⑨口 |⑨⑩⑪⑫|
口口口口 |⑬⑭⑮⑯|
76
①口口④ |①-②③|
口口口口 |④-⑤⑥|
口口口口
③②⑤⑥

⑩口⑦口
口⑧口口
口口⑨口 |⑦-⑧-|
口口口口 |⑨-⑩-|
77
口⑧④口 |①-②-|
⑥口③口 |③-④-|
①⑤⑦② |⑤-⑥-|
口口口口 |⑦-⑧-|
78
①口⑧口 |①-②③|
⑨口⑦口 |④-⑤-|
⑤⑥口口 |⑥-⑦-|
口④③② |⑧-⑨-|
79
口⑧⑨① |①-②③|
口⑦口口 |④-⑤-|
口口⑥⑤ |⑥-⑦-|
②③④口 |⑧-⑨-|
80
②口口⑥ |①-②③|
③⑧口① |④-⑤-|
口口⑤⑦ |⑥-⑦-|
⑨④口口 |⑧-⑨-|
81
④②①③ |①---|
②口口① |②---|
③①②④ |③---|
口③④口 |④---|
82
口②口⑧ |①---|
⑦⑤口口 |②-③④|
④口⑥口 |⑤-⑥-|
①③口① |⑦-⑧-|
83
⑧⑦①口 |①-②③|
口口④⑥ |④-⑤-|
⑩⑤口③ |⑥-⑦-|
⑨口②口 |⑧-⑨⑩|
84
口⑨②⑤ |①-②-|
①口③⑧ |③-④-|
口④口⑦ |⑤-⑥⑦|
口口口⑥ |⑧-⑨-|
85
口⑫⑫口 |①②③④|
⑦⑧⑨⑩ |⑤⑥-⑦|
⑥⑤④⑪ |⑧⑨⑩⑪|
①②③口 |⑫---|
86
①⑯⑫⑤ |①②③④|
⑮⑨⑬⑪ |⑤⑥⑦⑧|
⑭④⑧⑩ |⑨⑩⑪⑫|
⑥⑦③② |⑬⑭⑮⑯|
87
⑧⑯⑫⑪ |①②③④|
⑮⑦⑬⑩ |⑤⑥⑦⑧|
⑭③⑥⑨ |⑨⑩⑪⑫|
④⑤②① |⑬⑭⑮⑯|
88
口口口口 |①②③④|
口⑥口口 |⑤⑥⑦⑧|
口②⑤⑦
④⑧①③

⑩口⑮⑬
⑭口⑪⑨
⑫⑯口口 |⑨⑩⑪⑫|
口口口口 |⑬⑭⑮⑯|
89
⑧②⑮⑬ |①②③④|
⑭⑥⑪⑨ |⑤⑥⑦⑧|
⑫⑯③⑤ |⑨⑩⑪⑫|
④⑩⑦① |⑬⑭⑮⑯|
90
口口口口 |①---|
口口口口 |----|
口口口口 |----|
口口口① |----|
91
①口口口 |①---|
口口口口 |----|
口口口口 |----|
口口口口 |----|
92
①口口③ |①---|
④口口② |②---|
④口口② |③---|
口①③口 |④---|
93
①①③③ |①---|
口口②② |②---|
口口②② |③---|
①①③③ |----|


不確定度: 0

最終更新:2013年05月16日 13:48