ダダパラ!!
girl next door

ADVANCED

Level: 7
BPM: 154
Notes: 466

1
口口口口 |----|
口口口口 |----|
口口口口 |----|
口口口口 |----|
2
口口口口 |----|
口口口口 |----|
口口口口 |----|
口口口口 |----|
3
口口口口 |①---|
口口口口 |----|
①口口① |----|
口口口口 |----|
4
口口口口 |----|
口口口口 |----|
口口口口 |----|
口口口口 |----|
5
口口口口 |----|
口口口口 |----|
口口口口 |----|
口口口口 |----|
6
口口口口 |----|
口口口口 |----|
①口口① |----|
口口口口 |--①-|
7
口口口口 |①---|
①口口① |----|
口口口口 |----|
口口口口 |----|
8
口口口口 |----|
口口口口 |----|
口口口口 |----|
口口口口 |----|
9
口口口口 |①---|
②口口② |----|
①口口① |②---|
口口口口 |----|
10
口④④口 |①---|
口③③口 |②---|
口②②口 |③---|
①口口① |④---|
11
①口口① |①---|
口口口口 |②---|
②口口② |③---|
口③③口 |----|
12
④③③④ |--①-|
⑥②②⑥ |②-③-|
⑤①①⑤ |④-⑤-|
⑦口口⑦ |⑥-⑦-|
13
④③③④ |①---|
口②②口 |②-③-|
口口口口 |--④-|
⑤①①⑤ |--⑤-|
14
④③③④ |--①-|
⑤②②⑤ |②-③-|
⑥①①⑥ |④-⑤-|
⑦口口⑦ |⑥-⑦-|
15
③⑤⑤③ |①---|
口②②口 |②-③-|
口④④口 |--④-|
口①①口 |--⑤-|
16
①口口① |--①-|
④口口④ |--②-|
③②②③ |--③-|
⑤口口⑤ |④-⑤-|
17
③⑤⑤③ |①---|
口②②口 |②-③-|
口④④口 |--④-|
口①①口 |--⑤-|
18
①口口① |--①-|
④口口④ |--②-|
③②②③ |--③-|
⑤口口⑤ |④-⑤-|
19
口④④口 |①---|
口②①口 |②-③-|
口⑤⑤⑤ |--④-|
口③③口 |--⑤-|
20
口②②② |--①-|
口①①① |--②-|
口口口口 |----|
口口口口 |----|
21
口④④口 |①---|
口①②口 |②-③-|
⑤⑤⑤口 |--④-|
口③③口 |--⑤-|
22
②②②口 |--①-|
①①①口 |--②-|
口口口口 |----|
口口口口 |----|
23
口④④口 |①---|
口②①口 |②-③-|
口⑤⑤⑤ |--④-|
口③③口 |--⑤-|
24
口②②② |--①-|
口①①① |--②-|
口口口口 |----|
口口口口 |----|
25
口④④口 |①---|
口①②口 |②-③-|
⑤⑤⑤口 |--④-|
口③③口 |--⑤-|
26
②②②口 |--①-|
①①①口 |--②-|
口口口口 |----|
口口口口 |----|
27
口⑤⑤口 |①---|
③口口② |②-③-|
③①①② |--④-|
口④④口 |--⑤-|
28
口口口口 |--①-|
②口口① |②---|
②口口① |----|
口口口口 |----|
29
口⑤⑤口 |①---|
③口口② |②-③-|
③①①② |--④-|
口④④口 |--⑤-|
30
口口口口 |--①-|
②口口① |②---|
②口口① |----|
口口口口 |----|
31
口①①口 |①---|
③①①② |②-③-|
③口口②
口口口口

口⑤⑤口
口⑤⑤口
口口口口 |--④-|
口④④口 |--⑤-|
32
口口口口 |--①-|
②口口① |②---|
②口口① |----|
口口口口 |----|
33
③⑤⑤③ |①---|
②口口② |②-③-|
口④④口 |--④-|
①口口① |--⑤-|
34
口口口口 |--①-|
口口①① |--②-|
②②口口 |--③-|
口口③③ |----|
35
②口①口 |①---|
②①口口 |②-③-|
口口①③
口①口③

口口⑤口
口⑤口④
④口⑤口 |--④-|
口⑤口口 |--⑤-|
36
①口口口 |--①-|
①口口口 |--②-|
口口口② |----|
口口口② |----|
37
②口①口 |①---|
②①口口 |②-③-|
口口①③
口①口③

口口⑤口
口⑤口④
④口⑤口 |--④-|
口⑤口口 |--⑤-|
38
①口口口 |--①-|
①口口口 |--②-|
口口口② |----|
口口口② |----|
39
口①口口 |①---|
③口③口 |--②-|
②口②口 |③---|
口①口口 |----|
40
口口①口 |①---|
口③口③ |--②-|
口②口② |③---|
口口①口 |----|
41
⑤口口口 |①---|
③口④④ |②-③-|
①口②② |--④-|
口口口口 |--⑤-|
42
口②①① |--①-|
④口④口 |--②-|
③口③口 |--③-|
口②口口 |--④-|
43
①口口① |①---|
④口口口 |②-③-|
④口口口 |----|
②②③③ |--④-|
44
口口口口 |①---|
口③③① |②-③-|
口②②① |--④-|
④④口口 |----|
45
口口③③ |①---|
②②口口 |②-③-|
口口①① |----|
口口口口 |----|
46
口口口口 |----|
口口口口 |----|
口口口口 |----|
口口口口 |----|
47
口①②口 |①---|
口口③口 |--②-|
口③口口 |③---|
口②①口 |----|
48
口①②口 |①---|
口口③口 |--②-|
口③口口 |③---|
口②①口 |----|
49
口④口⑤ |①---|
口口③口 |②-③-|
口②口口 |--④-|
口口①口 |--⑤-|
50
①口口口 |--①-|
③口口② |--②-|
口口口④ |--③-|
口口口口 |--④-|
51
口口口口 |①---|
口口③口 |②-③-|
口②口口 |----|
口④①口 |--④-|
52
④口③⑤ |①---|
口②口口 |②-③-|
口口①口 |--④-|
口口口口 |--⑤-|
53
口口口口 |①---|
①口口② |②-③-|
③口口口 |----|
口口口口 |----|
54
口口口口 |①---|
口口口口 |----|
口口口口 |----|
口①①口 |----|
55
口⑤⑤口 |①-②-|
①③①口 |--③-|
口②口④ |--④-|
口③口口 |--⑤-|
56
口口口口 |--①-|
口①口① |--②-|
口②②口 |----|
口②口口 |----|
57
口④口口 |①---|
④口口③ |②-③-|
②⑤口口 |--④-|
⑤口口① |--⑤-|
58
口口口① |--①-|
口口①口 |--②-|
口口口② |----|
口口②口 |----|
59
口⑤⑤口 |①-②-|
①③①口 |--③-|
口②口④ |--④-|
口③口口 |--⑤-|
60
口口口口 |--①-|
口①口① |--②-|
口②②口 |----|
口②口口 |----|
61
口④口口 |①---|
④口口③ |②-③-|
②⑤口口 |--④-|
⑤口口① |--⑤-|
62
口口口① |--①-|
口口①口 |--②-|
口口口② |----|
口口②口 |----|
63
②口①口 |①---|
②①口口 |②-③-|
口口①③
口①口③

口口⑤口
口⑤口④
④口⑤口 |--④-|
口⑤口口 |--⑤-|
64
①口口口 |--①-|
①口口口 |--②-|
口口口② |----|
口口口② |----|
65
②口①口 |①---|
②①口口 |②-③-|
口口①③
口①口③

口口⑤口
口⑤口④
④口⑤口 |--④-|
口⑤口口 |--⑤-|
66
①口口口 |--①-|
①口口口 |--②-|
口口口② |----|
口口口② |----|
67
③⑤⑤③ |①---|
口②②口 |②-③-|
口④④口 |--④-|
口①①口 |--⑤-|
68
①口口① |--①-|
④口口④ |--②-|
③②②③ |--③-|
⑤口口⑤ |④-⑤-|
69
③⑤⑤③ |①---|
口②②口 |②-③-|
口④④口 |--④-|
口①①口 |--⑤-|
70
①口口① |--①-|
口②②口 |--②-|
口③③口 |③---|
口口口口 |----|
71
口口口口 |①---|
口口口口 |----|
口口口口 |----|
口①①口 |----|


不確定度: 0

タグ:

+ タグ編集
  • タグ:

このサイトはreCAPTCHAによって保護されており、Googleの プライバシーポリシー利用規約 が適用されます。

最終更新:2013年04月07日 23:27