Clumsy thoughts
猫叉Master feat. *spiLa*

EXTREME

Level: 9
BPM: 153
Notes: 644

1
口口口口 |----|
口口口口 |----|
口口口口 |----|
口口口口 |----|
2
①①口⑤ |①-②-|
口②⑥口 |③-④-|
口⑦③口 |⑤-⑥-|
⑧口口④ |⑦-⑧-|
3
①口口⑤ |①-②-|
口②⑥口 |③-④-|
口⑦③口 |⑤-⑥-|
⑧口口④ |⑦-⑧-|
4
口口①⑧ |①-②-|
⑤口⑦② |③-④-|
口⑥③口 |⑤-⑥-|
口口口④ |⑦-⑧-|
5
①口口口 |--①-|
口②⑥口 |②-③-|
口⑤③口 |--④-|
④口口口 |⑤-⑥-|
6
口口⑤口 |①-②-|
口①⑨③ |③-④-|
⑧⑦⑥口 |⑤--⑥⑦⑧|
口②⑩④ |⑨-⑩-|
7
口⑤③⑨ |①-②-|
①⑥⑦⑧ |③-④-|
口口④⑩ |⑤--⑥⑦⑧|
②口口口 |⑨-⑩-|
8
口③口口 |①-②-|
①⑧⑤口 |③-④-|
口④⑦口 |⑤-⑥-|
②⑥口口 |⑦-⑧-|
9
口③口口 |①---|
口口②① |②-③-|
①口口口
口口口口

口口口口
口口口⑤
口口⑥口 |--④-|
口④口口 |⑤-⑥-|
10
口④①口 |--①-|
口③口⑧ |②-③-|
②⑦⑥⑤ |④--⑤⑥⑦|
口口口⑨ |⑧-⑨-|
11
口口⑦口 |--①②|
③⑧口⑥ |③-④-|
⑦④口⑤ |⑤-⑥-|
①②③口 |⑦-⑧-|
12
口②口④ |①-②-|
口口③口 |③-④-|
口口①口
③口口口

⑦口口口
⑥口口⑧
口⑤⑦口 |⑤-⑥-|
口口口口 |⑦-⑧-|
13
⑤⑥⑦③ |①-②-|
⑧口④口 |③-④-|
①③⑧② |⑤⑥⑦---|
⑨口口口 |⑧-⑨-|
14
口③④⑤ |①-②-|
口⑥口① |③④⑤---|
②⑨⑧⑦ |⑥--⑦⑧⑨|
口口口⑩ |--⑩-|
15
⑦口③口 |--①②|
⑦⑧③⑥ |③-④-|
口④口⑤ |⑤-⑥-|
①②口口 |⑦-⑧-|
16
口口口口 |①--②③④|
口口口口 |--⑤-|
口⑤①口
口②③④

⑧口口口
⑦口⑥⑨
口口⑧口 |⑥-⑦-|
口口口口 |⑧-⑨-|
17
口口口③ |①-②-|
⑧口④口 |③-④-|
①③⑨② |⑤⑥⑦---|
口⑤⑥⑦ |⑧-⑨-|
18
①①①① |①---|
口口口口 |--②-|
口口口口
口②口口

⑥口口口
口④口口
口口⑤③ |③-④-|
口口口口 |⑤-⑥-|
19
口②①口 |①---|
口④①③ |--②-|
①③口口 |③---|
口③口口 |--④-|
20
⑥②口口 |①-②-|
口⑥口⑤ |③-④-|
④口③⑤ |⑤---|
口⑤①口 |--⑥-|
21
口口④③ |①---|
口口③口 |--②-|
口②①口 |③---|
②口口① |--④-|
22
口口口口 |①-②-|
口①口口 |③-④-|
口口②③
口④口口

口口口口
口口口⑥
⑤口⑦口 |⑤---|
口口口口 |⑥-⑦-|
23
①口口① |①---|
口⑤②口 |----|
口③口口 |②-③-|
口口④口 |④-⑤-|
24
②口①口 |①---|
口④口③ |②---|
③口④口 |③---|
口①口② |④---|
25
⑤②口⑥ |①---|
口口④口 |②-③-|
④口口① |④---|
口①③口 |⑤-⑥-|
26
口口④口 |①---|
④①②③ |②-③-|
⑤口⑥口 |④---|
口口口⑥ |⑤-⑥-|
27
①口口③ |①---|
口①③⑤ |②-③-|
口④口口 |④---|
④⑥②口 |⑤-⑥-|
28
口口③口 |①-②-|
口②口口 |③---|
口口①口
口口口口

口口口口
口⑥口④
⑤口口口 |④---|
口口口口 |⑤-⑥-|
29
口⑤口口 |①---|
口口④② |②---|
口③⑥口 |③-④-|
口①口① |⑤-⑥-|
30
②口①口 |①---|
口④口③ |②---|
③口④口 |③---|
⑤①口② |④---⑤-|
31
⑤③口口 |①---|
口⑥④② |②---|
口①口口 |③-④-|
口口口口 |⑤-⑥-|
32
口②②② |①---|
口口口口 |②---|
口口①口
口口口口

⑥口口口
⑦口口口
口口⑤④ |③-④-|
③③⑤④ |⑤-⑥⑦|
33
口⑧⑦口 |①-②-|
口口④② |③-④-|
①③⑤口 |⑤-⑥-|
口口⑥口 |⑦-⑧-|
34
①口口③ |①-②-|
口口口④ |③-④-|
②口口口
口口口口

⑥口口口
口口口口
口口口⑤ |⑤---|
⑦口口口 |⑥-⑦-|
35
口口口⑤ |①-②-|
口①④口 |③-④-|
⑦⑧口口 |⑤-⑥-|
口②③⑥ |⑦-⑧-|
36
④②②② |①---|
⑤口口口 |②---|
口口①口 |③---|
③③③口 |--④⑤|
37
口⑧⑦口 |①-②-|
口口④口 |③-④-|
①③⑤② |⑤-⑥-|
口口⑥口 |⑦-⑧-|
38
①口口③ |①-②-|
口口口④ |③-④-|
②口口⑤ |⑤-⑥-|
口⑥⑦⑧ |⑦-⑧-|
39
①口口口 |①-②-|
口③⑤⑧ |③-④-|
口口口⑦ |⑤-⑥-|
②④⑥口 |⑦-⑧-|
40
口②口口 |①---|
②口口口 |②---|
口①口口
①口口口

⑤口口③
⑥口③口
口口口④ |③-④-|
口口口④ |--⑤⑥|
41
口⑧⑦③ |①-②-|
⑦口④② |③-④-|
①③⑤口 |⑤-⑥-|
口口⑥口 |⑦-⑧-|
42
①口口③ |①-②-|
口③口④ |③-④-|
②口口口
口口口口

⑦口口口
口口口口
口⑥⑦⑤ |⑤-⑥-|
⑧口口口 |⑦-⑧-|
43
口口③⑤ |①-②-|
③①口口 |③-④-|
⑥⑦⑧口 |⑤-⑥-|
口②④⑥ |⑦-⑧-|
44
②②②口 |①---|
口④口口 |②---|
口口口① |③---|
口③③③ |--④-|
45
口⑧⑦① |①-②-|
口口④口 |③-④-|
口③⑤② |⑤-⑥-|
口口⑥口 |⑦-⑧-|
46
①口⑧③ |①-②-|
口口口④ |③-④-|
②⑦口⑤ |⑤-⑥-|
口⑥口口 |⑦-⑧-|
47
口口口口 |①---|
口口①口 |----|
口口口口
口口口口

口口口口
口口③口
②③口② |----|
口口口口 |②-③-|
48
③①①④ |①---|
口③④口 |②---|
口④③口 |③---|
④②②③ |④---|
49
口口口④ |----|
口②③口 |--①-|
①口口口 |②-③-|
口⑤口口 |④-⑤-|
50
①①④口 |①---|
口③口③ |②---|
口⑤②① |③-④-|
⑥口⑤口 |⑤-⑥-|
51
④②口口 |①-②-|
①口③口 |③-④-|
口口口①
口口口口

口口口口
⑦⑥口⑤
口⑤口口 |⑤-⑥-|
口⑧⑦口 |⑦-⑧-|
52
⑤口口⑤ |①---|
口③④③ |②-③-|
①②①口 |--④-|
口口口口 |⑤---|
53
口口①口 |----|
口②③④ |--①-|
口④口口 |②-③-|
口⑤口口 |④-⑤-|
54
口口口口 |①---|
口口口口 |--②-|
①口①②
口口口口

口口③口
口④口⑤
⑥口口口 |③-④-|
口口口口 |⑤-⑥-|
55
口⑥口口 |①---|
②④⑤口 |②-③-|
口③①⑥ |④-⑤-|
口口②口 |⑥---|
56
口口口口 |①-②-|
④⑤⑧① |③-④-|
①③②⑦ |⑤-⑥-|
口⑥③口 |⑦-⑧-|
57
①④②口 |①---|
③口口口 |②-③-|
①④②⑤ |④---|
⑤⑤口口 |⑤---|
58
①③口① |①-②-|
口口④① |③-④-|
口③口口
口口②③

口口⑦口
⑦口口⑧
⑤口⑥口 |⑤-⑥-|
⑦口口口 |⑦-⑧-|
59
口①⑦③ |①-②-|
⑦③②⑧ |③-④-|
⑤口⑥口 |⑤-⑥-|
⑦③④口 |⑦-⑧-|
60
⑤⑤⑤⑤ |①---|
口④①口 |②-③-|
③①③① |--④-|
口③口② |⑤---|
61
口③②口 |----|
③⑤口② |--①-|
①口⑤④ |②-③-|
口①④口 |④-⑤-|
62
口口口口 |①---|
口口①口 |--②-|
口①口口
口②口口

口口④口
③口口口
口⑥口⑤ |③-④-|
口口口口 |⑤-⑥-|
63
口②⑤① |①---|
②口⑥⑤ |--②-|
④⑥口③ |③-④-|
口④③口 |⑤-⑥-|
64
②②口口 |①---|
口①口口 |②---|
口口①口
口口口口

口口口口
口口口口
口口④④ |③---|
口③口口 |④---|
65
口口口③ |①---|
②②口口 |②---|
④⑤口口 |③-④-|
④⑤①口 |⑤---|
66
②③④⑦ |①--②③④|
⑤口口口 |⑤-⑥-|
口⑨①⑧ |⑦-⑧-|
⑥⑨口⑩ |⑨-⑩-|
67
口⑤③⑦ |①-②-|
①⑥口⑦ |③-④-|
口口④口 |⑤-⑥-|
②口⑧口 |⑦-⑧-|
68
口③口口 |①-②-|
①⑧⑤口 |③-④-|
口④口⑦ |⑤-⑥-|
②⑥口⑦ |⑦-⑧-|
69
口③⑥口 |--①-|
⑤口②口 |②-③-|
⑤①④口 |--④-|
口口口口 |⑤-⑥-|
70
②⑨口⑩ |①-②-|
口口①⑤ |③-④-|
口⑥⑦⑧ |⑤--⑥⑦⑧|
④口③③ |⑨-⑩-|
71
口口③口 |①-②-|
①⑨③⑤ |③-④-|
⑥⑦⑧口 |⑤--⑥⑦⑧|
②④口口 |--⑨-|
72
口口③口 |①-②-|
②⑧⑤口 |③-④-|
口④口⑦ |⑤-⑥-|
口⑥①⑦ |⑦-⑧-|
73
②口③口 |①-②-|
口口⑦① |③-④-|
①④口口 |--⑤-|
口⑤口⑥ |⑥-⑦-|
74
⑨口①⑨ |--①-|
④②口④ |②-③-|
③⑤⑥⑦ |④--⑤⑥⑦|
⑧口口⑧ |⑧-⑨-|


不確定度: 0

最終更新:2014年02月17日 17:50