この青空の下で
TAG meets "eimy"

EXTREME

Level: 9
BPM: 165
Notes: 814

1
口口口口 |----|
口口口口 |----|
口口口口 |----|
口口口口 |----|
2
口④③口 |①②③④|
②口口① |⑤⑥⑦⑧|
⑥口口⑤
口⑧⑦口

⑯口口⑮
⑭口口⑬
口⑫⑨口 |⑨⑩⑪⑫|
⑩口口⑪ |⑬⑭⑮⑯|
3
⑧口②⑧ |①②-③|
⑥口①口 |--④⑤|
③口⑤口 |-⑥--|
⑦口④⑦ |⑦-⑧-|
4
⑯④③⑮ |①②③④|
⑭②①⑬ |⑤⑥⑦⑧|
⑥⑫⑨⑤ |⑨⑩⑪⑫|
⑩⑧⑦⑪ |⑬⑭⑮⑯|
5
口②①口 |①②③④|
口④③口 |⑤⑥⑦⑧|
⑥口口⑤
口⑧⑦口

⑭口口⑬
口⑯⑮口
口⑩⑨口 |⑨⑩⑪⑫|
⑫口口⑪ |⑬⑭⑮⑯|
6
口④③口 |①②③④|
②口口① |⑤⑥⑦⑧|
⑥口口⑤
口⑧⑦口

⑯口口⑮
⑭口口⑬
口⑫⑨口 |⑨⑩⑪⑫|
⑩口口⑪ |⑬⑭⑮⑯|
7
⑧口②⑧ |①②-③|
⑥口①口 |--④⑤|
③口⑤口 |-⑥--|
⑦口④⑦ |⑦-⑧-|
8
⑯④③⑮ |①②③④|
⑭②①⑬ |⑤⑥⑦⑧|
⑥⑫⑨⑤ |⑨⑩⑪⑫|
⑩⑧⑦⑪ |⑬⑭⑮⑯|
9
口口②口 |①②-③|
口口①口 |--④-|
④口口④
口③③口

⑦口口⑥
口⑦⑥口
口⑤⑤口 |--⑤-|
口口口口 |⑥-⑦-|
10
口口⑤口 |--①-|
②口口口 |②-③-|
⑥口③⑥ |④-⑤-|
①④口① |--⑥-|
11
口口③口 |--①-|
口口口口 |②-③-|
⑥②口⑤ |--④-|
④口①口 |⑤-⑥-|
12
口②口② |①---|
③①③口 |②-③-|
⑤口⑤口 |--④-|
口④①④ |⑤---|
13
口口口口 |①---|
口口口口 |②---|
口③口④ |③---|
①口②口 |④---|
14
口口⑥口 |①-②-|
③口口口 |③-④-|
⑦口④⑦ |⑤-⑥-|
②⑤①② |--⑦-|
15
口口③口 |--①-|
口口口口 |②-③-|
口②⑤口 |--④-|
⑥④①⑥ |⑤-⑥-|
16
③口口口 |①---|
口①①② |②-③-|
口③口口
口口②口

口④口④
⑤口⑤口
口口口口 |--④-|
口⑥口⑥ |⑤-⑥-|
17
口口口口 |①---|
口口口口 |②---|
口口口口
①口②口

口口口④
口口③口
口③口口 |③---|
④口口口 |④---|
18
①口④口 |①---|
口②⑥口 |②-③-|
口⑥③口 |④-⑤-|
口⑤⑤① |--⑥-|
19
①口口② |--①-|
口③④口 |②---|
口④③口 |③---|
②口口① |④---|
20
①口口口 |①---|
口口口口 |②-③-|
③口口口
②口口①

⑥口④口
口⑥口④
口口口口 |④---|
口⑤⑤口 |⑤-⑥-|
21
口口口口 |--①-|
口口口② |②-③-|
③①③①
口口口②

口④口④
⑤口⑤口
口⑥口⑥ |--④-|
口口口口 |⑤-⑥-|
22
⑥口口⑥ |①---|
口⑤口口 |②---|
⑥口④⑥ |③-④-|
①③①② |⑤-⑥-|
23
口口口口 |----|
②口②口 |①---|
口③口③ |②---|
口①口① |③---|
24
①①①① |①---|
⑤③口④ |②-③-|
④口③⑤ |--④-|
口②②口 |--⑤-|
25
⑧⑥⑦⑨ |①②③-|
⑩④⑤⑪ |④⑤⑥⑦|
⑫③④⑬ |⑧⑨⑩⑪|
⑭①②⑮ |⑫⑬⑭⑮|
26
口口口口 |①-②-|
口②②口 |--③-|
口①①口
口③口口

⑤口口口
口口口④
口⑦⑦口 |④-⑤-|
口口⑥口 |⑥-⑦-|
27
口口①① |①--②|
口口②口 |③-④-|
③口口④
①口口口

⑥口口⑥
⑤口口⑤
口口⑦口 |⑤---|
口口口口 |⑥-⑦-|
28
口⑥④口 |①--②|
口⑤②口 |③-④-|
口③⑥⑦ |⑤---|
口①⑤① |⑥-⑦-|
29
⑦口②① |①--②|
⑤口④⑤ |③-④-|
③口⑥口 |⑤--⑥|
①口口⑧ |⑦-⑧-|
30
口⑥口④ |①--②|
口⑤⑤口 |③-④-|
口③⑥② |⑤---|
口①①口 |⑥---|
31
⑥口①⑤ |①--②|
⑤口口口 |③-④-|
③口口④ |⑤---|
①口②⑥ |⑥---|
32
口⑥①③ |①---|
口④口⑤ |②-③-|
口②⑦口 |④-⑤-|
口①②口 |⑥-⑦-|
33
⑤口口③ |①---|
④口口口 |②-③-|
②口口② |④---|
①口①口 |⑤---|
34
⑨⑦⑧⑩ |①②③④|
⑪⑤⑥⑫ |⑤⑥⑦⑧|
⑬③④⑭ |⑨⑩⑪⑫|
⑮①②⑯ |⑬⑭⑮⑯|
35
口⑦④⑦ |①--②|
口⑤②⑧ |③-④-|
口③口⑥ |⑤-⑥-|
口①①口 |⑦-⑧-|
36
⑦口④口 |①--②|
⑤口②⑧ |③-④-|
③口⑥⑦ |⑤-⑥-|
①口①口 |⑦-⑧-|
37
口⑦⑤④ |①--②|
口⑤②口 |③-④-|
口③⑥口 |⑤--⑥|
口①①⑧ |⑦-⑧-|
38
⑥口⑥④ |①--②|
⑤口口① |③-④-|
③口⑦② |⑤---|
①口口口 |⑥-⑦-|
39
口⑥⑦口 |①-②-|
口⑤①④ |③-④-|
口③口口 |⑤---|
口①②口 |⑥-⑦-|
40
④口口④ |①---|
③口口③ |②---|
②口口② |③---|
①口①口 |④---|
41
口⑥口口 |①--②|
口⑤①口 |③-④-|
口③口④ |⑤---|
口①②口 |⑥---|
42
②⑥④② |①--②|
⑥⑤①口 |--③-|
口①⑤⑥ |④-⑤-|
③④⑥③ |⑥---|
43
⑤口口⑧ |①②③④|
口口⑥② |⑤⑥⑦⑧|
口①口口
③⑦口④

口口⑭口
⑬⑪口⑯
⑨⑮口⑩ |⑨⑩⑪⑫|
口口⑫口 |⑬⑭⑮⑯|
44
③⑤口⑥ |①②③④|
口口口口 |⑤⑥⑦⑧|
口口④⑧
①⑦口②

口口⑫口
⑮⑪口⑭
⑨口口口 |⑨⑩⑪⑫|
⑬口⑩⑯ |⑬⑭⑮⑯|
45
③⑦口② |①②③④|
口口④口 |⑤⑥⑦⑧|
口①口⑥
口⑤⑧口

口口⑩⑯
⑮口口⑫
⑨⑬口口 |⑨⑩⑪⑫|
⑪口口⑭ |⑬⑭⑮⑯|
46
⑦口⑧口 |①②③④|
口③口口 |⑤⑥⑦⑧|
⑤口⑥②
口①④口

口口口⑭
⑪口口⑩
口⑬口口 |⑨⑩⑪⑫|
⑨⑮⑯⑫ |⑬⑭⑮⑯|
47
⑫⑥⑨⑪ |①②③④|
⑧④③⑦ |⑤⑥⑦⑧|
②⑩⑤① |⑨⑩⑪⑫|
⑬⑮⑯⑭ |⑬⑭⑮⑯|
48
⑫⑥⑨⑪ |①②③④|
⑧④③⑦ |⑤⑥⑦⑧|
②⑩⑤① |⑨⑩⑪⑫|
⑭⑯⑮⑬ |⑬⑭⑮⑯|
49
口⑥⑤口 |①②③④|
口④③口 |⑤⑥⑦⑧|
②⑧⑦①
口口口口

口口口口
⑩⑯⑮⑨
⑭口口⑬ |⑨⑩⑪⑫|
口⑫⑪口 |⑬⑭⑮⑯|
50
⑯⑧⑦⑮ |①②③④|
⑥⑭⑬⑤ |⑤⑥⑦⑧|
⑫④③⑪ |⑨⑩⑪⑫|
②⑩⑨① |⑬⑭⑮⑯|
51
口口口口 |①-②-|
②口口① |----|
口②①口 |----|
口口口口 |----|
52
口口口口 |①---|
口口口口 |----|
①口口① |----|
口口口口 |----|
53
口口口口 |----|
口口口口 |----|
口口口口 |----|
口口口口 |----|
54
口口口口 |①-②-|
②②②② |----|
①①①① |----|
③口口③ |--③-|
55
口口口口 |--①-|
①口口① |--②-|
口②②口
口口口口

口口口口
⑤口口⑤
③口口③ |--③-|
④口口④ |④-⑤-|
56
④①①④ |①--②|
口②②口 |--③-|
⑤口口⑤ |--④-|
口③③口 |--⑤-|
57
口③④口 |①--②|
口④③口 |--③-|
口①①口 |--④-|
⑤②②⑤ |--⑤-|
58
③口口③ |①--②|
①口口① |--③-|
口口口口 |----|
口②②口 |----|
59
⑨⑦⑧⑩ |①②③④|
⑪⑤⑥⑫ |⑤⑥⑦⑧|
⑬③④⑭ |⑨⑩⑪⑫|
⑮①②⑯ |⑬⑭⑮⑯|
60
口⑦④⑦ |①--②|
口⑤②⑧ |③-④-|
口③口⑥ |⑤-⑥-|
口①①口 |⑦-⑧-|
61
⑦口④口 |①--②|
⑤口②⑧ |③-④-|
③口⑥⑦ |⑤-⑥-|
①口①口 |⑦-⑧-|
62
口⑦⑤④ |①--②|
口⑤②口 |③-④-|
口③⑥口 |⑤--⑥|
口①①⑧ |⑦-⑧-|
63
⑥口⑥④ |①--②|
⑤口口① |③-④-|
③口⑦② |⑤---|
①口口口 |⑥-⑦-|
64
口⑥⑦口 |①-②-|
口⑤①④ |③-④-|
口③口口 |⑤---|
口①②口 |⑥-⑦-|
65
④口口④ |①---|
③口口③ |②---|
②口口② |③---|
①口①口 |④---|
66
口口口口 |①--②|
口⑤①口 |③-④-|
⑥③口④ |⑤---|
口①②口 |⑥---|
67
②②②② |①---|
口口①口 |②---|
口①口口
口口口口

口口口口
口④④口
口④④口 |③---|
③③③③ |④---|
68
口④③口 |①②③④|
②口口① |⑤⑥⑦⑧|
⑥口口⑤
口⑧⑦口

⑯口口⑮
⑭口口⑬
口⑫⑨口 |⑨⑩⑪⑫|
⑩口口⑪ |⑬⑭⑮⑯|
69
⑧口②⑧ |①②-③|
⑥口①口 |--④⑤|
③口⑤口 |-⑥--|
⑦口④⑦ |⑦-⑧-|
70
⑯④③⑮ |①②③④|
⑭②①⑬ |⑤⑥⑦⑧|
⑥⑫⑨⑤ |⑨⑩⑪⑫|
⑩⑧⑦⑪ |⑬⑭⑮⑯|
71
口②①口 |①②③④|
口④③口 |⑤⑥⑦⑧|
⑥口口⑤
口⑧⑦口

⑭口口⑬
口⑯⑮口
口⑩⑨口 |⑨⑩⑪⑫|
⑫口口⑪ |⑬⑭⑮⑯|
72
口④③口 |①②③④|
②口口① |⑤⑥⑦⑧|
⑥口口⑤
口⑧⑦口

⑯口口⑮
⑭口口⑬
口⑫⑨口 |⑨⑩⑪⑫|
⑩口口⑪ |⑬⑭⑮⑯|
73
⑧口②⑧ |①②-③|
⑥口①口 |--④⑤|
③口⑤口 |-⑥--|
⑦口④⑦ |⑦-⑧-|
74
⑯④③⑮ |①②③④|
⑭②①⑬ |⑤⑥⑦⑧|
⑥⑫⑨⑤ |⑨⑩⑪⑫|
⑩⑧⑦⑪ |⑬⑭⑮⑯|
75
口②②口 |①②-③|
口①①口 |--④-|
③口口③
④③③④

⑥口口⑦
口⑥⑦口
口⑤⑤口 |--⑤-|
口口口口 |⑥-⑦-|
76
口口口口 |①---|
口口口口 |----|
①口口① |----|
口口口口 |----|


不確定度: 0

最終更新:2014年02月17日 17:50