Wow Wow VENUS
VENUS

EXTREME

Level: 9
BPM: 157
Notes: 848

1
口口口口 |----|
口口口口 |----|
口口口口 |----|
口口口口 |----|
2
口口①② |①-②-|
口口⑥④ |③④⑤⑥|
③⑤①②
口口口口

⑦⑦⑪口
口⑩口口
口口⑨口 |⑦--⑧|
⑧⑧口口 |-⑨⑩⑪|
3
口③口口 |①-②-|
①口③② |③-④-|
①口口②
口④④口

口口口⑤
口⑥口口
口口⑥⑦ |⑤--⑥|
⑤口口⑦ |--⑦-|
4
②①口口 |①-②-|
口口⑤③ |③④⑤⑥|
②①口口
④⑥口口

⑨口⑦⑦
⑩口口口
⑪口口口 |⑦--⑧|
口口⑧⑧ |-⑨⑩⑪|
5
口口③③ |①-②-|
⑥口②① |③-④-|
口⑤②① |⑤---|
⑥⑤④④ |⑥---|
6
口口①② |①-②-|
口口④⑥ |③④⑤⑥|
⑤③①②
口口口口

⑦⑦⑪口
口⑩口口
口口⑨口 |⑦--⑧|
口⑧⑧口 |-⑨⑩⑪|
7
④口口③ |①-②-|
①口③② |③-④-|
④口口口
①口口②

口口口口
口口口口
口口⑤⑥ |⑤--⑥|
⑥⑤⑦⑦ |--⑦-|
8
②①口口 |①-②-|
口口③⑤ |③④⑤⑥|
②①口口
⑥④口口

口口⑦⑦
⑧⑧口口
口⑪口口 |⑦--⑧|
口口⑩⑨ |-⑨⑩⑪|
9
③③口口 |①-②-|
口口①② |③-④-|
口口①②
④④口口

口口口口
⑤⑥⑥口
⑤口口口 |⑤---|
口口口口 |⑥---|
10
④口②③ |①---|
口口口① |②---|
口口③② |③---|
口口①口 |④---|
11
⑤②③④ |①--②|
⑥口口① |③---|
①口④③ |④---|
口④①口 |⑤-⑥-|
12
⑤②③④ |①--②|
⑥口口① |③---|
①口④③ |④---|
口④①口 |⑤-⑥-|
13
口②③④ |①--②|
口⑤⑤① |③---|
①口④③ |④--⑤|
⑤口①⑤ |----|
14
①③口② |①---|
⑤口口② |②--③|
⑤口口口 |④-⑤-|
⑥⑥口④ |--⑥-|
15
④④③口 |--①-|
⑤②口口 |②-③-|
⑤口口⑥ |④---|
口口①⑥ |⑤-⑥-|
16
口口口② |--①-|
口口口口 |②-③-|
口口①口
口口③口

口口⑦口
口口⑥④
口口⑦口 |④-⑤-|
口口口⑤ |⑥-⑦-|
17
口①口① |--①-|
②②口口 |②-③-|
口③口③
口口口口

口口口⑥
口口⑤⑥
口口⑤口 |④---|
口④④口 |⑤-⑥-|
18
①口②口 |----|
①口口④ |①--②|
口口口④ |③-④-|
③口⑤⑤ |--⑤-|
19
⑥③④④ |--①-|
⑥⑤②口 |②-③-|
①⑤口口 |④---|
口口口口 |⑤-⑥-|
20
⑤①④⑥ |--①-|
⑦口⑦② |②-③-|
③⑥口⑤ |④-⑤-|
④②③① |⑥-⑦-|
21
口口口口 |--①-|
口③④② |②---|
口口①口 |--③-|
口口①② |④---|
22
①③口② |①--②|
①③口② |--③-|
③①②口
③①②口

⑤口④口
口口④口
口口口④ |④--⑤|
口⑥口④ |--⑥-|
23
口⑤④① |①--②|
口口口② |--③-|
口口⑥口 |④--⑤|
口口③口 |--⑥-|
24
④③④口 |①--②|
④④④口 |--③-|
①④口② |④---|
口口口口 |----|
25
⑤⑦口口 |①--②|
③口④口 |--③-|
③②④口 |④-⑤-|
口①⑥口 |⑥-⑦-|
26
③口口③ |①--②|
②口口① |--③-|
②口口① |④---|
口④④口 |----|
27
口③④口 |①--②|
①⑤⑤② |--③-|
③口口④ |④--⑤|
①口口② |----|
28
①③口② |①--②|
①③口② |--③-|
③①②口
③①②口

⑤口④口
⑤口④口
口⑥口④ |④--⑤|
口⑥口④ |--⑥-|
29
④口口口 |①--②|
④⑥③① |--③-|
②口①⑤ |④--⑤|
②⑥⑤③ |--⑥-|
30
口①①② |①---|
口口②口 |--②-|
口口口③ |③---|
口口③口 |----|
31
口口口口 |----|
①口口口 |----|
口口口口 |----|
口①口口 |①---|
32
②②②口 |①---|
口①口口 |--②-|
口口口口
①口口口

口口口③
⑤口口③
⑤⑥⑥③ |③-④-|
⑤④④④ |⑤-⑥-|
33
③②②口 |①--②|
口①①③ |--③-|
口口口口 |④---|
⑤④④⑤ |⑤---|
34
口①口口 |①---|
②①①口 |②---|
②②①①
口②②口

口口③③
口口④③
口口口④ |③---|
③口口口 |--④-|
35
①口口口 |-①②③|
口②口口 |④-⑤-|
口⑤③口
口口⑤④

口口⑥⑥
口口口⑥
口口⑦口 |⑥---|
⑥⑦口口 |--⑦-|
36
口②口口 |--①-|
口③口口 |②-③-|
①口口口
口口口口

口口口口
口口④④
⑥口口⑥ |④---|
口⑤⑤口 |⑤-⑥-|
37
⑦口口④ |--①-|
③口②口 |②-③-|
口①口口 |④-⑤-|
⑤口口⑥ |⑥-⑦-|
38
口①口口 |①---|
②①①口 |②---|
②②①①
口②②口

口口③③
口口④③
口口口④ |③---|
③口口口 |--④-|
39
①口口口 |-①②③|
口②口口 |④-⑤-|
口⑤③口
口口⑤④

口口⑥⑥
口⑦⑦⑥
口口口口 |⑥---|
⑥口口口 |--⑦-|
40
口③②口 |--①-|
③⑤口② |②-③-|
①⑤④④ |④--⑤|
口口⑥⑥ |--⑥-|
41
口口④口 |--①-|
③⑤口口 |②-③-|
②口⑥口 |④-⑤-|
①⑦口口 |⑥-⑦-|
42
①口②③ |①---|
②口口① |②---|
③口③② |③---|
④口①口 |④---|
43
①口②③ |①---|
②口口① |②---|
③口③② |③---|
④口①口 |④---|
44
①口②③ |①---|
②口口① |②---|
③口③② |③---|
④口①口 |④---|
45
口口③口 |①---|
口②①口 |②---|
口③口口 |③---|
口①②口 |----|
46
口①③③ |①---|
②①①③ |②---|
②②①① |③---|
③②②口 |----|
47
①口⑤⑤ |①-②-|
③口口⑤ |③-④-|
口口口口 |⑤---|
⑤口④② |----|
48
口①③③ |①---|
②①①③ |②---|
②②①① |③---|
③②②口 |----|
49
口口⑤⑤ |①-②-|
口②①⑤ |③-④-|
口④③口 |⑤---|
⑤口口口 |----|
50
口①③③ |①---|
②①①③ |②---|
②②①① |③---|
③②②口 |----|
51
口①口⑤ |①-②-|
口②口口 |③-④-|
口③口口 |⑤---|
口④口口 |----|
52
口①③③ |①---|
②①①③ |②---|
②②①① |③---|
③②②口 |----|
53
①口⑤⑤ |①-②-|
口③口⑤ |③-④-|
口口④口 |⑤---|
⑤口口② |----|
54
①口口口 |①---|
②③④⑤ |②③④⑤|
口口口①
口口口①

口口口口
口口口口
⑥口⑦口 |⑥--⑦|
⑧⑨⑩⑪ |⑧⑨⑩⑪|
55
①口①① |①---|
②口②② |②---|
③口③口 |③--④|
⑤口口④ |⑤---|
56
①口口① |①---|
②③④① |②③④⑤|
⑥口⑦⑤ |⑥--⑦|
⑧⑨⑩⑪ |⑧⑨⑩⑪|
57
①口①② |①---|
②口口① |②-③-|
口口口③
口口口口

口口⑤口
口口④⑤
④口④口 |④---|
⑤口口口 |⑤---|
58
①口口口 |①---|
②③④⑤ |②③④⑤|
口口口口
口口①①

口口口口
口口口口
⑥口⑦口 |⑥--⑦|
⑧⑨⑩⑪ |⑧⑨⑩⑪|
59
①口①① |①---|
②口②② |②---|
口口口口
口口口口

口口④④
口口口口
③口③③ |③--④|
⑤口⑥⑥ |⑤-⑥-|
60
①口口口 |①---|
②③①① |②③④⑤|
口口④⑤
口口口口

口口⑥⑥
口口口⑦
⑥口口口 |⑥--⑦|
⑧⑨⑩⑪ |⑧⑨⑩⑪|
61
⑤①⑤④ |①-②-|
①口②④ |③-④-|
③③口② |⑤---|
⑥口口⑥ |⑥---|
62
口①口口 |①---|
②①①口 |②---|
②②①①
口②②口

口口③③
口④口③
口口④口 |③---|
③口口口 |--④-|
63
口口口口 |--①-|
②口①口 |②---|
口①口口
口口②口

口口③③
口口④③
口④口口 |③---|
③口口口 |--④-|
64
①④②口 |--①-|
口⑥⑤③ |②-③-|
③⑤⑥口 |④--⑤|
口②④① |--⑥-|
65
②口③口 |①---|
①口口③ |----|
口口口① |②---|
③口口② |③---|
66
口①口口 |①---|
②①①口 |②---|
②②①①
口②②口

口口③③
口口④③
口口口④ |③---|
③口口口 |--④-|
67
①口口口 |-①②③|
口②口口 |④-⑤-|
口⑤③口
口口⑤④

口口⑥⑥
口口口⑥
口口⑦口 |⑥---|
⑥⑦口口 |--⑦-|
68
口②口口 |--①-|
口③口口 |②-③-|
①口口口
口口口口

口口口口
口口④④
⑥口口⑥ |④--⑤|
口⑤⑤口 |--⑥-|
69
⑦口口④ |--①-|
③口②口 |②-③-|
口①口口 |④-⑤-|
⑤口口⑥ |⑥-⑦-|
70
④①③③ |①---|
②①①③ |②---|
②②①① |③---|
③②②④ |--④-|
71
口口口口 |-①②③|
①②口口 |④-⑤-|
口口③④
口⑤⑤口

口口⑥⑥
口⑦⑦⑥
口口口口 |⑥---|
⑥口口口 |--⑦-|
72
口③②口 |--①-|
③⑤口② |②-③-|
①⑤④④ |④--⑤|
口口⑥⑥ |--⑥-|
73
口口④口 |--①-|
③⑤口口 |②-③-|
②口⑥口 |④-⑤-|
①⑦口口 |⑥-⑦-|
74
⑦口口① |①-②-|
⑦⑧②① |③-④-|
③④⑥⑤ |⑤-⑥-|
③口口⑤ |⑦-⑧-|
75
⑦⑧②① |①-②-|
⑦口口① |③-④-|
③口口⑤ |⑤-⑥-|
③④⑥⑤ |⑦-⑧-|
76
⑦口口① |①-②-|
⑦⑧②① |③-④-|
③④⑥⑤ |⑤-⑥-|
③口口⑤ |⑦-⑧-|
77
口④口① |①-②-|
口口口口 |③-④-|
②口口口
口口口③

口口⑥⑥
⑤口口⑥
口口口口 |--⑤-|
⑥口⑤口 |⑥---|


不確定度: 0

最終更新:2013年05月16日 13:53