梅雪夜
Qrispy Joybox feat.mao

EXTREME

Level: 9
BPM: 167
Notes: 740

1
口口口口 |----|
口口口口 |----|
口口口口 |----|
口口口口 |----|
2
口口口口 |①-②-|
口口口口 |----|
口①①口
口②②口

口口口口
口口口口
口口④口 |----|
口③口口 |--③④|
3
①口口② |①-②-|
⑤口口口 |③-④-|
口③口⑥ |⑤-⑥-|
⑦口口④ |⑦---|
4
口口口口 |①-②-|
口口口口 |----|
口①①口
口②②口

口口口口
口口口口
口口④口 |----|
口③口口 |--③④|
5
⑦口⑥② |①-②-|
①③口口 |③-④-|
⑤口口口 |⑤-⑥-|
口口口④ |⑦---|
6
口口口口 |①-②-|
口口口口 |----|
口①①口
口②②口

口口口口
口口口口
口口④口 |----|
口③口口 |--③④|
7
①口口④ |①-②-|
③⑤口口 |③-④-|
口口口② |⑤-⑥-|
⑦口口⑥ |⑦---|
8
口③②口 |①---|
①④①④ |②---|
③②③② |③---|
口①④口 |④---|
9
②口③② |①---|
口口①口 |②---|
③②口③ |③---|
①口口① |----|
10
①①口口 |①-②③|
⑤⑨②口 |④-⑤-|
口③⑥⑥ |⑥-⑦-|
⑦口④⑧ |⑧-⑨-|
11
⑦口①① |①-②-|
④口⑤③ |③-④-|
②口口⑥ |⑤---|
⑤口③⑤ |⑥-⑦-|
12
口①①口 |①---|
④④口⑤ |②-③-|
口①①⑦ |④-⑤-|
⑥②口③ |⑥-⑦-|
13
①①口② |①-②-|
③⑤口口 |③-④-|
口口④口 |⑤---|
⑤③口⑤ |----|
14
①①⑥⑥ |①-②③|
⑤口②口 |④-⑤-|
⑦③口口 |⑥-⑦-|
⑨口④⑧ |⑧-⑨-|
15
⑥⑥⑤③ |①-②-|
④口①① |③-④-|
口口③⑤ |⑤---|
口②口口 |⑥---|
16
④③口③ |①---|
口①④② |②---|
④②③口 |③---|
①口①② |④---|
17
口口①口 |①---|
口口口① |②---|
口②③口 |③---|
②口口③ |----|
18
①①口口 |①-②③|
⑤口②口 |④-⑤-|
口③⑥⑥ |⑥-⑦-|
⑦口④⑧ |⑧---|
19
口口①① |①-②-|
④口口③ |③-④-|
②口口口
口口③口

⑥口口⑥
口口⑤口
口口口口 |⑤---|
⑤口口⑤ |⑥---|
20
口①①口 |①-②③|
⑥⑥口⑦ |④-⑤-|
口②口⑨ |⑥-⑦-|
⑧④③⑤ |⑧-⑨-|
21
①①口② |①-②-|
③⑤口口 |③-④-|
口口④口 |⑤---|
⑤③口⑤ |----|
22
②口⑤⑤ |①-②-|
④口①① |③-④-|
口⑥口口 |⑤-⑥-|
⑧口③⑦ |⑦-⑧-|
23
口口口③ |①-②-|
④口①① |③-④-|
口口③口
口②口口

⑦口⑤口
口口⑥口
口口口⑤ |⑤---|
口口口口 |⑥-⑦-|
24
④③口③ |①---|
口①④② |②---|
④②③口 |③---|
①口①② |④---|
25
口口①口 |①---|
口口口① |②---|
口②③口 |③---|
②口口③ |----|
26
①③口口 |--①-|
⑦⑤口口 |②-③-|
口②口口 |④-⑤-|
④⑥口口 |⑥-⑦-|
27
④②口口 |①-②-|
⑥⑤口口 |③-④-|
①③口口 |⑤-⑥-|
口⑦口口 |⑦---|
28
①③③① |--①-|
⑦⑤⑤⑦ |②-③-|
口②②口 |④-⑤-|
④⑥⑥④ |⑥-⑦-|
29
④②②④ |①-②-|
口⑤⑤口 |③-④-|
①③③① |⑤---|
口口口口 |----|
30
②④①口 |①-②-|
⑧⑥口① |③-④-|
口③口口 |⑤-⑥-|
⑤⑦⑤⑤ |⑦-⑧-|
31
口②口口 |①-②-|
⑥⑤⑤⑤ |③-④-|
①④①① |⑤-⑥-|
③⑦口口 |⑦---|
32
①②③口 |①-②-③-|
口⑥⑤④ |④-⑤-⑥-|
口口口口
④口口①

口口口⑦
⑩口口口
⑦⑧⑨口 |⑦-⑧-⑨-|
口⑫⑪⑩ |⑩-⑪-⑫-|
33
①②③口 |①-②-③-|
口⑥⑤④ |④-⑤-⑥-|
④⑦⑦① |⑦---|
⑧口口⑧ |⑧---|
34
①口口① |①---|
②④③⑤ |----|
④②⑤③ |②-③-|
口口口口 |④-⑤-|
35
口①①口 |①---|
②口口③ |----|
口口口口 |②---|
③口口② |③---|
36
①②①口 |①---|
②口②口 |②---|
①②①口
口口口口

口口口口
口③口③
④口④口 |③---|
口口口口 |④---|
37
①③②① |①-②-③-|
④⑤⑥口 |④-⑤-⑥-|
⑦⑨⑧⑦ |⑦-⑧-⑨-|
⑩⑪⑫⑩ |⑩-⑪-⑫-|
38
②①①口 |①---|
口口③② |----|
③②口口 |②---|
口口口③ |③---|
39
口口④① |①---|
①②③④ |②---|
③④①② |③---|
②③口口 |④---|
40
④①口④ |①-②-|
①③口口 |③---|
口口③② |④---|
⑤口②⑤ |⑤---|
41
⑦①①⑦ |①-②-|
⑤③③⑤ |③-④-|
④口口② |⑤-⑥-|
⑧口口⑥ |⑦-⑧-|
42
口口口口 |①-②-|
口③④口 |③-④-|
③①①④
口②②口

⑦口口⑧
⑥口口⑤
口⑦⑧口 |⑤-⑥-|
口口口口 |⑦-⑧-|
43
⑨⑦⑥⑧ |①②③-|
⑨①口⑧ |④-⑤-|
⑤口口④ |⑥-⑦-|
⑤③②④ |⑧-⑨-|
44
⑧⑥口⑦ |①-②③|
口②口口 |④-⑤-|
口①①⑨ |⑥-⑦-|
口④③⑤ |⑧-⑨-|
45
口口①口 |①②③-|
口②口口 |④-⑤-|
口口③口
④口口⑤

口⑨⑧⑦
⑥口口口
口口口口 |⑥-⑦-|
口口口口 |⑧-⑨-|
46
④口口口 |①-②-|
④口口口 |③-④-|
口①①③
口②②③

口口口⑦
口口⑦⑤
⑧口口口 |⑤-⑥-|
⑥⑧口口 |⑦-⑧-|
47
④口①口 |①②③-|
④②口⑤ |④-⑤-|
口口③⑤
口口口口

口口口⑦
口口口口
⑧⑥⑨口 |⑥-⑦-|
⑧口⑨口 |⑧-⑨-|
48
①②③口 |①-②-③-|
口⑥⑤④ |④-⑤-⑥-|
口口口口
口口口①

口口口⑦
口口口口
⑦⑧⑨口 |⑦-⑧-⑨-|
口⑫⑪⑩ |⑩-⑪-⑫-|
49
①②③口 |①-②-③-|
口⑥⑤④ |④-⑤-⑥-|
口⑦⑦① |⑦---|
⑧口口⑧ |⑧---|
50
①口口① |①---|
②④③⑤ |----|
④②⑤③ |②-③-|
口口口口 |④-⑤-|
51
②①①③ |①-②③|
⑥口口⑦ |④-⑤-|
口口口⑤ |⑥---|
⑦④口⑥ |⑦---|
52
①口②口 |①---|
口口①口 |②---|
①②口②
口口口口

口口口口
口③口③
④口④口 |③---|
口口口口 |④---|
53
①③②① |①-②-③-|
④⑤⑥口 |④-⑤-⑥-|
⑦⑨⑧⑦ |⑦-⑧-⑨-|
⑩⑪⑫⑩ |⑩-⑪-⑫-|
54
⑥①①② |①-②③|
③⑤⑦⑥ |④-⑤-|
⑦⑥口④ |⑥---|
口口口⑦ |⑦---|
55
口口④① |①---|
①②③④ |②---|
③④①② |③---|
②③口口 |④---|
56
③①口③ |①---|
①②口口 |②---|
口口②① |③---|
④口①④ |④---|
57
口①①口 |①-②-|
②⑥口③ |③-④-|
口⑧⑦口 |⑤-⑥⑦|
口④⑤⑨ |⑧-⑨-|
58
②④口③ |①②③-|
④口口① |④-⑤-|
口口口⑤
口口⑤口

口口⑨口
口口口⑨
⑩⑥⑦口 |⑥⑦⑧-|
⑧⑩口口 |⑨-⑩-|
59
①口口⑥ |①②③-|
④③②⑨ |④-⑤-|
⑩④⑨⑤ |⑥⑦⑧-|
⑦⑩⑤⑧ |⑨-⑩-|
60
①②③④ |①②③-|
⑦⑥⑤口 |④⑤⑥-|
口⑧⑨⑩ |⑦⑧⑨-|
口⑫⑪口 |⑩⑪⑫-|
61
③①①② |①-②③|
⑦④④⑤ |④-⑤-|
口⑥⑥⑨ |⑥-⑦-|
口⑧⑧口 |⑧-⑨-|
62
①口④口 |①②③-|
⑤口②④ |④-⑤-|
③⑤口口
口口口口

⑨口口⑥
口⑨口口
口口口⑩ |⑥⑦⑧-|
口⑦⑩⑧ |⑨-⑩-|
63
口②①口 |①②③-|
⑧⑥③④ |④-⑤-|
⑤⑨④⑩ |⑥⑦⑧-|
⑨⑤⑩⑦ |⑨-⑩-|
64
③①①② |①-②③|
⑥④④⑤ |④-⑤⑥|
⑨⑦⑦⑧ |⑦-⑧⑨|
⑫⑩⑩⑪ |⑩-⑪⑫|
65
口③②① |①-②-③-|
④⑤⑥口 |④-⑤-⑥-|
口⑨⑧⑦ |⑦-⑧-⑨-|
⑩⑪⑫口 |⑩-⑪-⑫-|
66
①口口口 |①---|
口口口口 |----|
口口口口 |----|
口口口口 |----|
67
口口口口 |----|
口口口口 |----|
口口口口 |----|
口口口口 |----|
68
①⑤口口 |①-②-|
⑦③口口 |③-④-|
⑥②口口 |⑤-⑥-|
④⑧口口 |⑦-⑧-|
69
①⑤口口 |①-②-|
⑦③口口 |③-④-|
⑥②口口 |⑤-⑥-|
④⑧口口 |⑦-⑧-|
70
①⑤口口 |①-②-|
⑦③口口 |③-④-|
⑥②①① |⑤-⑥-|
④⑧口口 |⑦-⑧-|
71
①⑤口口 |①-②-|
⑦③口口 |③-④-|
⑥②口口 |⑤-⑥-|
④⑧口口 |⑦-⑧-|
72
①⑤口口 |①-②-|
⑦③口口 |③-④-|
⑥②口口 |⑤-⑥-|
④⑧口口 |⑦-⑧-|
73
①⑤口口 |①-②-|
⑦③口口 |③-④-|
⑥②口口 |⑤-⑥-|
④⑧口口 |⑦-⑧-|


不確定度: 0

最終更新:2014年02月17日 17:49