Sakura Sunrise
Ryu☆

EXTREME

Level: 9
BPM: 181
Notes: 674

1
口口口口 |----|
口口口口 |----|
口口口口 |----|
口口口口 |----|
2
①①⑦口 |①-②-|
口⑥②口 |③---|
口③⑤口 |④-⑤-|
口④口口 |⑥-⑦-|
3
⑦⑤口口 |①-②-|
⑤口④口 |③-④-|
⑥③口口 |⑤---|
①口口② |⑥-⑦-|
4
口⑦①① |①-②-|
口②⑥口 |③---|
口⑤③口 |④-⑤-|
口口④口 |⑥-⑦-|
5
口口②① |①---|
口口口口 |②---|
口口口口
口口口口

口口口⑤
口③口口
③口③④ |③---|
口③口口 |④-⑤-|
6
①①⑦口 |①-②-|
口⑥②口 |③---|
口③⑤口 |④-⑤-|
口④口口 |⑥-⑦-|
7
⑦⑤口口 |①-②-|
⑤口④口 |③-④-|
⑥③口口 |⑤---|
①口口② |⑥-⑦-|
8
口⑦①① |①-②-|
口②⑥口 |③---|
口⑤③口 |④-⑤-|
口口④口 |⑥-⑦-|
9
口⑤①② |--①-|
⑤④口③ |②-③-|
③口④⑤ |--④-|
②①⑤口 |⑤---|
10
②口①口 |①-②-|
口④③口 |③---|
⑤口口口 |④-⑤-|
口⑥⑦口 |⑥-⑦-|
11
⑤③⑤口 |①-②-|
③④③口 |③-④-|
⑤③⑤② |⑤---|
⑥口⑦① |⑥-⑦-|
12
口⑥⑦口 |①-②-|
④口口⑤ |③---|
口②口① |④-⑤-|
口口口③ |⑥-⑦-|
13
口口口① |①---|
③②③⑤ |②---|
②③②④ |③---|
③②③口 |④-⑤-|
14
口①口② |①-②-|
口③④口 |③---|
口口口⑤ |④-⑤-|
口⑦⑥口 |⑥-⑦-|
15
口⑤③⑤ |①-②-|
口③④③ |③-④-|
②⑤③⑤ |⑤---|
①口⑦⑥ |⑥-⑦-|
16
①口⑥④ |①-②-|
口⑦⑤② |③---|
③⑤⑦口 |④-⑤-|
④⑥口口 |⑥-⑦-|
17
②①⑤口 |--①-|
③口④⑤ |②-③-|
⑤④口③ |--④-|
口⑤①② |⑤---|
18
⑦①口② |①-②-|
⑥③口口 |③---|
⑤口口口 |④-⑤-|
④口口口 |⑥-⑦-|
19
口口②① |①-②-|
口⑤③⑤ |③-④-|
⑦③④③ |⑤---|
⑥⑤③⑤ |⑥-⑦-|
20
⑤②口① |①-②-|
⑦口口口 |③---|
口口口③ |④-⑤-|
口口⑥④ |⑥-⑦-|
21
口③②③ |①---|
⑤②③② |②---|
④③②③ |③---|
①口口口 |④-⑤-|
22
①口口口 |①-②-|
口②口⑦ |③---|
口口③⑥ |④-⑤-|
⑤口口④ |⑥-⑦-|
23
口②①口 |①-②-|
⑤③⑤口 |③-④-|
③④③⑦ |⑤---|
⑤③⑤⑥ |⑥-⑦-|
24
①口口② |①-②-|
口⑦⑥口 |③---|
③⑤④口 |④-⑤-|
口口口口 |⑥-⑦-|
25
⑤口①⑤ |--①-|
③⑤⑤② |②-③-|
②④④③ |--④-|
口①口口 |⑤---|
26
⑥④口⑦ |①-②-|
④⑥⑦⑤ |③-④-|
⑧口口③ |⑤-⑥-|
②口口① |⑦-⑧-|
27
⑥口⑤⑦ |①-②-|
口⑥⑦⑤ |③-④-|
口②①③ |⑤-⑥-|
②④③① |⑦---|
28
⑤①口⑥ |①-②-|
①⑤⑥口 |③-④-|
⑦口口④ |⑤-⑥-|
③⑦口② |⑦---|
29
⑦①①⑦ |①-②-|
②⑤⑤② |③-④-|
⑥③③⑥ |⑤-⑥-|
④口口④ |⑦---|
30
⑥口⑤⑦ |①-②-|
口⑥口⑤ |③-④-|
口④③口 |⑤-⑥-|
口②①口 |⑦---|
31
⑥口口⑥ |①-②-|
④⑤⑤④ |③-④-|
②③③② |⑤-⑥-|
口①①口 |----|
32
口⑥⑤⑦ |①-②-|
⑥口⑦⑤ |③-④-|
④口口③ |⑤-⑥-|
②口口① |⑦---|
33
⑦⑥⑥⑦ |①-②-|
⑤⑦⑦⑤ |③-④-|
④②②④ |⑤-⑥-|
①③③① |⑦---|
34
口口口口 |①-②-|
⑦口口⑨ |③-④-|
⑥③②⑧ |⑤-⑥⑦|
④口⑤① |-⑧⑨-|
35
①⑤口④ |①-②-|
⑨②③⑦ |③-④-|
⑧口口⑥ |⑤-⑥⑦|
口口口口 |-⑧⑨-|
36
口口口口 |①-②-|
⑦口口⑨ |③-④-|
⑥③②⑧ |⑤-⑥⑦|
④口⑤① |-⑧⑨-|
37
①⑤口④ |①-②-|
⑨②③⑦ |③-④-|
⑧口口⑥ |⑤-⑥⑦|
口口口口 |-⑧⑨-|
38
口口口口 |①-②-|
⑨口口⑦ |③-④-|
⑧②③⑥ |⑤-⑥⑦|
①⑤口④ |-⑧⑨-|
39
④口⑤① |①-②-|
⑦③②⑨ |③-④-|
⑥口口⑧ |⑤-⑥⑦|
口口口口 |-⑧⑨-|
40
口口口口 |--①-|
⑥口口⑦ |②-③-|
⑤②③⑦ |④-⑤⑥|
①口口④ |--⑦-|
41
④口口① |--①-|
口③②口 |②-③-|
口⑦⑥口 |④-⑤⑥|
口⑦⑤口 |--⑦-|
42
口②①口 |①-②-|
口口③⑦ |③---|
口口口⑥ |④-⑤-|
⑤口口④ |⑥-⑦-|
43
口口口① |①---|
③②③口 |②---|
②③②⑤ |③---|
③②③④ |④-⑤-|
44
④①②⑤ |①-②-|
⑥③口口 |③---|
⑦口口口 |④-⑤-|
口口口口 |⑥-⑦-|
45
口③②③ |①---|
⑤②③② |②---|
④③②③ |③---|
①口口口 |④-⑤-|
46
①口⑦⑥ |①-②-|
口③口② |③---|
⑤口口口 |④-⑤-|
④口口口 |⑥-⑦-|
47
②口口口 |①-②-|
①⑤③⑤ |③-④-|
⑦③④③ |⑤---|
⑥⑤③⑤ |⑥-⑦-|
48
口口口① |①-②-|
②口口口 |③---|
口口口③
口口口口

⑤口口⑩
口⑨⑥口
口⑦⑧口 |④⑤⑥⑦|
⑪口口④ |⑧⑨⑩⑪|
49
口口①⑤ |--①-|
③④⑤② |②-③-|
②⑤④③ |--④-|
⑤①口口 |⑤---|
50
⑥②①口 |①-②-|
③⑥⑤④ |③-④-|
④⑤⑥③ |--⑤-|
口①②⑥ |⑥---|
51
口口口口 |----|
口口口口 |----|
口口口口 |----|
口口口口 |----|
52
③②③口 |①---|
②③②口 |②---|
③②③⑥ |③-④-|
口④⑤① |⑤-⑥-|
53
口②口① |①-②-|
④口③口 |③---|
口⑤口口 |④-⑤-|
⑦口口⑥ |⑥-⑦-|
54
口⑤③⑤ |①-②-|
口③④③ |③-④-|
口⑤③⑤ |⑤---|
⑥①②⑦ |⑥-⑦-|
55
①口②口 |①-②-|
③口口口 |③---|
口口口口
口口口口

⑦⑥口口
口口口⑤
口口口④ |④-⑤-|
口口口口 |⑥-⑦-|
56
口口口① |①---|
③②③口 |②---|
②③②⑤ |③---|
③②③④ |④-⑤-|
57
④①⑤② |①-②-|
口③口口 |③---|
口口口口 |④-⑤-|
⑥口口⑦ |⑥-⑦-|
58
⑤③⑤口 |①-②-|
③④③口 |③-④-|
⑤③⑤⑦ |⑤---|
口②①⑥ |⑥-⑦-|
59
⑦②口① |①-②-|
⑥④⑤③ |③---|
口⑤④⑥ |④-⑤-|
口口口⑦ |⑥-⑦-|
60
口⑤①② |--①-|
⑤④口③ |②-③-|
③口④⑤ |--④-|
②①⑤口 |⑤---|
61
②口①口 |①-②-|
口口③口 |③-④-|
④口⑥口 |⑤-⑥-|
⑧⑦口⑤ |⑦-⑧-|
62
口③口口 |①-②-|
③④③② |③-④-|
口③口①
口口口口

⑤口⑤口
口口口口
⑤口⑤⑧ |⑤-⑥-|
口⑥口⑦ |⑦-⑧-|
63
口②口① |①-②-|
⑥④口③ |③-④-|
⑧口口口 |⑤-⑥-|
口⑦⑤口 |⑦-⑧-|
64
口③②③ |①---|
⑥②③② |②---|
⑤③②③ |③-④-|
①口④口 |⑤-⑥-|
65
①口④口 |①-②-|
口③口② |③-④-|
⑥口口⑤ |⑤-⑥-|
⑧口口⑦ |⑦-⑧-|
66
⑤③⑤口 |①-②-|
③④③⑧ |③-④-|
⑤③⑤⑦ |⑤-⑥-|
口②①⑥ |⑦-⑧-|
67
口③口① |①-②-|
②④③口 |③④⑤⑥|
口⑤口口
口⑥口口

口口口⑩
口口口⑨
⑧口⑦口 |⑦-⑧-|
口口口口 |⑨-⑩-|
68
②③口⑤ |--①-|
①口④口 |②-③-|
口口口① |--④-|
⑤口③② |⑤---|
69
口口口口 |①---|
口①口口 |----|
①①①口 |----|
口①口口 |----|


不確定度: 0

最終更新:2013年06月30日 20:04