華爛漫 -Flowers-
TЁЯRA

EXTREME

Level: 9
BPM: 160
Notes: 556

1
口口口口 |----|
口口口口 |----|
口口口口 |----|
口口口口 |----|
2
口口口口 |----|
口②口口 |----|
①口口口 |----|
口口口口 |①-②-|
3
口口①口 |①---|
口口③口 |②---|
口②口口 |③---|
口口④口 |④---|
4
口口口① |①---|
③②口② |②---|
口口口① |③---|
③口口口 |----|
5
口口口① |①---|
④②③② |②---|
口口口① |③---|
④口口口 |④---|
6
口口④④ |①---|
口口③口 |②---|
口②口口 |③---|
口口①口 |④---|
7
口口口口 |①-②-|
口①④口 |③-④-|
口口口口
口③②口

口口口口
口⑦口⑥
⑤口口⑧ |⑤-⑥-|
口口口口 |⑦-⑧-|
8
口③口口 |①-②-|
③口口口 |③-④-|
口①④口
①口②口

口口口口
口⑤口⑧
⑤⑦口口 |⑤-⑥-|
口口口⑥ |⑦-⑧-|
9
口口口口 |①-②-|
①口④口 |③-④-|
口口口口
口③②口

口口口口
⑦口口⑥
⑤口口⑧ |⑤-⑥-|
口口口口 |⑦-⑧-|
10
口⑤口口 |①-②-|
⑤③口口 |③-④-|
③①④口 |⑤---|
①口②口 |----|
11
⑤②⑥口 |①---|
③口④口 |②-③-|
口①口口 |④---|
口口口口 |⑤-⑥-|
12
口口口口 |--①-|
口①②口 |②-③-|
⑤③口口 |④---|
口口④口 |⑤---|
13
口口②⑤ |①---|
口④⑥③ |②-③-|
口口①口 |④---|
口口口口 |⑤-⑥-|
14
⑧④口④ |--①-|
⑨③口⑤ |②-③-|
⑩②⑧⑥ |④⑤⑥⑦|
⑪口①⑦ |⑧⑨⑩⑪|
15
口口②口 |①---|
口③口口 |②-③-|
口口口口
口口①口

口口口口
口口口④
口口口口 |④---|
⑤口⑥口 |⑤-⑥-|
16
⑧④口④ |--①-|
⑨③口⑤ |②-③-|
⑩①②⑥ |④⑤⑥⑦|
⑪口口⑦ |⑧⑨⑩⑪|
17
口口口口 |①---|
口口①口 |②-③-|
口④⑥③ |④---|
口口②⑤ |⑤-⑥-|
18
①口口口 |--①-|
口④口④ |②-③-|
口②口口 |④---|
③口③口 |----|
19
口①②口 |①---|
①口口② |②---|
④③③口 |③---|
口口口口 |④---|
20
⑤口口⑤ |①---|
④①②④ |②-③-|
口口口③ |④---|
口口口口 |⑤---|
21
口口口口 |①---|
口③③口 |②---|
①口口② |③---|
④①②口 |④---|
22
口①④① |①---|
口④②④ |②-③-|
③①④① |④---|
口口口口 |----|
23
口③口口 |①---|
①口②口 |②---|
口①④② |③---|
口口口口 |④---|
24
口口口③ |①---|
④口②口 |②-③-|
口口⑤口 |--④-|
口①口口 |--⑤-|
25
口口②口 |①---|
口口口③ |--②-|
③口口口 |----|
口②口① |③---|
26
口口口口 |①---|
口①口口 |----|
口口①口
口口口口

②口口口
口③口口
口②口口 |②---|
口口口口 |③---|
27
口口口② |①---|
①⑥③④ |②-③-|
⑤口②口 |④---|
口①④口 |⑤-⑥-|
28
口④①口 |①--②|
⑥口③口 |③-④-|
⑦②口口 |⑤---|
口⑥⑤口 |⑥-⑦-|
29
①口口④ |①---|
口⑥口② |②-③-|
⑤①④③ |④---|
口口②口 |⑤-⑥-|
30
⑥④①口 |①--②|
口⑦口口 |③-④-|
口⑥③口 |⑤---|
口②⑤口 |⑥-⑦-|
31
口口口② |①---|
①⑥③④ |②-③-|
⑤口②口 |④---|
口①④口 |⑤-⑥-|
32
口④①口 |①--②|
⑥口③口 |③-④-|
⑦②口口 |⑤---|
口⑥⑤口 |⑥-⑦-|
33
①口口④ |①---|
口口⑥② |②-③-|
⑤①④③ |④---|
口口②口 |⑤-⑥-|
34
口①④口 |①--②|
⑥⑥⑥⑥ |③-④-|
口③口口 |⑤---|
口⑤②⑤ |⑥---|
35
口口口口 |①---|
口口口口 |----|
口②口① |②---|
口口口口 |----|
36
③口口① |①---|
口②口口 |②---|
③口口① |③---|
①②口口 |----|
37
口②口口 |①---|
口①口① |----|
口③口口 |②---|
口①口口 |③---|
38
口③口口 |①---|
口⑥②① |②---|
⑤口④口 |③-④-|
口②①口 |⑤-⑥-|
39
⑤口口① |①-②-|
⑤⑧④① |③-④-|
⑦③口口 |⑤-⑥-|
口②⑥口 |⑦-⑧-|
40
③③①① |①-②-|
⑤⑧口口 |③-④-|
口口⑦⑤ |⑤-⑥-|
⑥④口② |⑦-⑧-|
41
⑤口口① |①-②-|
⑤⑧④① |③-④-|
⑦③⑨口 |⑤-⑥-|
口②口⑥ |⑦-⑧⑨|
42
口①①① |①---|
口口口口 |②---|
口口口口
②②②口

④口⑥⑤
④口口③
④口口③ |③---|
口口口③ |④-⑤⑥|
43
②口口口 |①---|
口③口口 |----|
口①①口 |----|
口①①口 |②-③-|
44
口口口口 |①---|
口口口② |②-③-|
①口③口 |④---|
⑤口⑥④ |⑤-⑥-|
45
口口口④ |①--②|
⑥口①口 |③-④-|
口⑦③⑤ |⑤---|
口②口口 |⑥-⑦-|
46
口口口② |①---|
口口③口 |②-③-|
口口口④ |④---|
①⑥口⑤ |⑤-⑥-|
47
④口①口 |①--②|
口口口口 |③-④-|
口口口口
③口②口

口口⑥口
⑦口口口
⑤口口口 |⑤---|
口口口口 |⑥-⑦-|
48
口口口口 |①-②-|
⑦③口口 |③-④-|
口⑧①④ |⑤-⑥-|
⑥⑤③② |⑦-⑧-|
49
口口口④ |①--②|
口②①口 |③-④-|
口口③口
口口口口

口口口口
口口⑥口
⑦口口⑤ |⑤---|
口口口口 |⑥-⑦-|
50
⑦③口口 |①-②-|
口口口④ |③-④-|
口⑤⑧⑥ |⑤-⑥-|
④口①② |⑦-⑧-|
51
⑥口口口 |①--②|
口⑦①⑤ |③-④-|
③⑥口口 |⑤---|
口②④口 |⑥-⑦-|
52
口⑥口③ |①-②-|
①⑧④⑤ |③-④-|
⑦口③口 |⑤-⑥-|
口①⑤② |⑦-⑧-|
53
口④①口 |①--②|
⑦口③口 |③-④-|
⑧②口⑥ |⑤-⑥-|
口⑦⑤口 |⑦-⑧-|
54
①⑥口⑤ |①-②-|
口⑧②③ |③-④-|
⑦①⑤④ |⑤-⑥-|
口口③口 |⑦-⑧-|
55
⑦④①口 |①--②|
口⑧口口 |③-④-|
口⑦③⑥ |⑤-⑥-|
口②⑤口 |⑦-⑧-|
56
口口口③ |①-②-|
①⑧④⑤ |③-④-|
⑦口③口 |⑤-⑥-|
⑥①⑤② |⑦-⑧-|
57
口④①口 |①--②|
⑥口③口 |③-④-|
⑦②口口 |⑤---|
口⑥⑤口 |⑥-⑦-|
58
①口口口 |①-②-|
口口②③ |③-④-|
口①口④
口口③口

口口口⑤
口⑥⑧口
⑦口⑤口 |⑤-⑥-|
口口口口 |⑦-⑧-|
59
口①④口 |①--②|
⑥⑥⑥⑥ |③-④-|
口③口口 |⑤---|
口⑤②⑤ |⑥---|
60
③口口① |①-②-|
口口口口 |③-④-|
①③②口
①口口④

口⑥口⑦
口⑧⑤⑦
口口口口 |⑤-⑥-|
口⑤口口 |⑦-⑧-|
61
口⑤①⑦ |①-②-|
⑤⑧③⑦ |③-④-|
②口⑥① |⑤-⑥-|
口③④口 |⑦-⑧-|
62
口⑥③口 |①-②-|
④口⑦⑤ |③-④-|
⑧③⑦② |⑤-⑥-|
①①⑤口 |⑦-⑧-|
63
②口④① |①---|
③口口口 |②---|
口口口③ |③---|
①④口② |④---|
64
③⑥口⑦ |①-②-|
口⑧⑤⑦ |③-④-|
①③②口 |⑤-⑥-|
①⑤口④ |⑦-⑧-|
65
口⑤①⑦ |①-②-|
⑤⑧③⑦ |③-④-|
②口⑥① |⑤-⑥-|
口③④口 |⑦-⑧-|
66
⑧口③⑤ |①-②-|
④⑦口⑤ |③-④-|
⑥③口② |⑤-⑥-|
①①口口 |⑦-⑧-|
67
口口②口 |①-②-|
④④④④ |③---|
口①口口 |④---|
口③口③ |----|
68
口口口口 |①-②-|
⑤⑦口口 |③-④-|
①③⑥⑧ |⑤-⑥-|
口口②④ |⑦-⑧-|
69
①③⑤⑤ |①-②-|
口口②④ |③-④-|
口口口口 |⑤---|
口口口口 |----|


不確定度: 0

最終更新:2013年06月30日 19:57