愛と勇気の三度笠ポン太
荒牧陽子

BASIC

Level: 4
BPM: 160
Notes: 219

1
口口口口 |----|
口口口口 |----|
口口口口 |----|
口口口口 |----|
2
口②③口 |①---|
口口口口 |----|
口①①口 |--②-|
口口口口 |--③-|
3
口口口口 |①---|
口口口口 |----|
口①①口 |----|
口口口口 |----|
4
口②③口 |①---|
口口口口 |----|
口①①口 |--②-|
口口口口 |--③-|
5
②口口② |①---|
口口口口 |----|
口①①口 |--②-|
口口口口 |----|
6
口②③口 |①---|
口口口口 |----|
口①①口 |--②-|
口口口口 |--③-|
7
口口口口 |①---|
口口口口 |----|
口①①口 |----|
口口口口 |----|
8
口②③口 |①---|
口口口口 |----|
口①①口 |--②-|
口口口口 |--③-|
9
②口口② |①---|
②口口② |----|
口①①口 |--②-|
口口口口 |----|
10
口口口口 |----|
口口口口 |----|
口口口口 |----|
口口口口 |----|
11
口口口口 |①---|
口③③口 |--②-|
口口口口 |----|
①口口② |③---|
12
口口口口 |--①-|
口口口口 |----|
①口口口 |----|
口口口口 |----|
13
口口口口 |①---|
口②②口 |----|
口口口① |----|
口口口口 |②---|
14
②口口④ |①---|
③口口⑤ |②-③-|
口①①口 |--④-|
口口口口 |⑤---|
15
口口口口 |①---|
口口口口 |----|
口①①口 |----|
口口口口 |----|
16
口口口口 |--①-|
口口口口 |----|
①口口口 |----|
口口口口 |----|
17
口口口口 |①---|
口②②口 |----|
口口口① |----|
口口口口 |②---|
18
口①①口 |①---|
③口口④ |--②-|
口②②口 |--③-|
口口口口 |④---|
19
口口口口 |①---|
口口口口 |----|
口口口口 |----|
口①①口 |----|
20
口口口口 |①---|
①①①① |----|
口口口口 |----|
口口口口 |----|
21
①①①① |①---|
口口口口 |----|
口②口口 |----|
口口口口 |②---|
22
口④③口 |①---|
口口口口 |----|
②口①口 |②---③-|
口口口口 |--④---|
23
口口口口 |①---|
口口口口 |----|
口口口① |----|
口口口口 |----|
24
口口口口 |①---|
口口口口 |----|
口口口口 |----|
①①①① |----|
25
口口口口 |①---|
①①①① |----|
口口口口 |----|
口②②口 |②---|
26
口口口口 |①---②-|
①②③口 |--③---|
口⑥⑤④ |④---⑤-|
口口口口 |--⑥---|
27
①口口① |①---|
①口口① |----|
口口口口 |----|
口口口口 |----|
28
①口口① |①---|
口口口口 |----|
口口口口 |----|
口口口口 |----|
29
口口口口 |①---|
①口口口 |----|
口口口口 |----|
口口口口 |----|
30
口口口口 |①---|
口口口① |----|
口口口口 |----|
口口口口 |----|
31
口口口口 |①---|
口口口口 |----|
口①口口 |----|
口口口口 |----|
32
口口口口 |①---|
口口口口 |----|
口口①口 |----|
口口口口 |----|
33
口口口口 |①---|
口④口口 |----|
①口③① |②---③-|
口②口口 |--④---|
34
①口口① |①---|
②口口③ |--②-|
口口口口 |③---|
口口口口 |----|
35
口④口口 |①---|
口②③口 |----|
口口口口 |②---③-|
口①①口 |--④---|
36
口口①口 |①---|
口口口口 |----|
口口口口 |----|
口口口口 |----|
37
口口口口 |①---|
①口口口 |----|
口口口口 |----|
口口口口 |----|
38
口口口口 |①---|
口口口① |----|
口口口① |----|
口口口口 |----|
39
口口口口 |①---|
口口口口 |----|
口①口口 |----|
口口口口 |----|
40
口口口口 |①---|
口口口口 |----|
口口①口 |----|
口口①口 |----|
41
口口口口 |①---|
口④口口 |----|
①口③① |②---③-|
口②口口 |--④---|
42
①口口① |①---|
②口口③ |--②-|
口口口口 |③---|
口口口口 |----|
43
口④口口 |①---|
口②③口 |----|
口口口口 |②---③-|
口①①口 |--④---|
44
口口①口 |①---|
口口口口 |----|
口口口口 |----|
口口口口 |----|
45
口口口口 |①---|
口口口口 |----|
①①①① |----|
口口口口 |----|
46
口②③口 |①---|
口口口口 |----|
口①①口 |--②-|
口口口口 |--③-|
47
口口口口 |①---|
口口口口 |----|
口①①口 |----|
口口口口 |----|
48
口②③口 |①---|
口口口口 |----|
口①①口 |--②-|
口口口口 |--③-|
49
口口口口 |①---|
②口口② |----|
②①①② |--②-|
口口口口 |----|
50
口①②口 |①---|
口③④口 |②---|
口口口口 |③---|
口口口口 |④---|
51
口口口口 |①---|
口口口口 |----|
口口口口 |----|
口①①口 |----|
52
口口口口 |----|
口口口口 |----|
口口口口 |----|
口口口口 |----|
53
口口口口 |①---|
口口口口 |----|
口①①口 |----|
口口口口 |----|
54
②口口② |①---|
①口口① |----|
口口口口 |②---|
口口口口 |----|
55
口①①口 |①---|
②③口口 |----|
口口口口 |②---|
口口口口 |③---|
56
口口口口 |①---|
口口①② |②---|
口口口口 |--③-|
口③③口 |----|
57
口口口口 |①---|
②①①口 |----|
口③口口 |②---|
口口口口 |③---|
58
口口口口 |①---|
口口①口 |----|
口口口口 |----|
口口口口 |----|
59
①②③④ |①---|
口口口口 |②---|
口口口口 |③---|
口口口口 |④---|
60
口口口口 |①---|
口口口口 |②---|
口③②① |③---|
口口口口 |----|
61
口口口口 |①---|
④③②① |②---|
口口口口 |③---|
口口口口 |④---|
62
口口口口 |①---|
口口口口 |②---|
口口口口 |③---|
①②③口 |----|
63
口口口口 |----|
口口口口 |①---|
口②②口 |--②-|
口①①口 |----|
64
②口口③ |①---|
③①①② |--②-|
口口口口 |--③-|
口口口口 |----|
65
口口口口 |----|
口口口口 |①---|
口②②口 |--②-|
口①①口 |----|
66
③口口③ |①---|
口①①口 |--②-|
②口口② |--③-|
口口口口 |----|
67
口口口口 |----|
口口口口 |----|
口口口口 |----|
口口口口 |----|
68
口口口口 |----|
口口口口 |----|
口口口口 |----|
口口口口 |----|
69
口口口口 |①---|
①②②① |---②|
口②②口 |----|
口口口口 |----|


不確定度: 0

最終更新:2013年04月22日 13:37