愛と勇気の三度笠ポン太
荒牧陽子

ADVANCED

Level: 6
BPM: 160
Notes: 387

1
口口口口 |----|
口口口口 |----|
口口口口 |----|
口口口口 |----|
2
口口口口 |①---|
口②③口 |----|
口口口口 |--②-|
口①①口 |--③-|
3
⑤口口⑤ |①---|
④口口④ |----|
③口口③ |②-③-|
②①①② |④-⑤-|
4
口口口口 |①---|
口②③口 |----|
口口口口 |--②-|
口①①口 |--③-|
5
口②②口 |①---|
口口口口 |----|
口口口口 |--②-|
①口口① |----|
6
口口口口 |①---|
口②③口 |----|
口口口口 |--②-|
口①①口 |--③-|
7
⑤口口⑤ |①---|
④口口④ |----|
③口口③ |②-③-|
②①①② |④-⑤-|
8
口口口口 |①---|
口②③口 |----|
口口口口 |--②-|
口①①口 |--③-|
9
口②②口 |①---|
口口口口 |----|
口口口口 |--②-|
①口口① |----|
10
口口口口 |----|
口口口口 |----|
口口口口 |----|
口口口口 |----|
11
口③③口 |①---|
①口口② |--②-|
①口口② |----|
口口口口 |③---|
12
④口口④ |--①-|
口③口口 |②-③-|
⑤口②⑤ |④---|
口①口口 |⑤---|
13
②③④② |①---|
口口口口 |--②-|
口①①口 |----|
口口口口 |③-④-|
14
④⑤口口 |①---|
口口口口 |②-③-|
①口②③ |--④-|
口口口口 |⑤---|
15
口口口口 |①---|
口口口口 |----|
口口口口 |----|
口①①口 |----|
16
④口口④ |--①-|
口③口口 |②-③-|
⑤口②⑤ |④---|
①口口口 |⑤---|
17
口③④口 |①---|
口②②口 |--②-|
口①①口 |----|
口口口口 |③-④-|
18
口口口口 |①---|
③②②④ |--②-|
①口口① |--③-|
③口口④ |④---|
19
口口口口 |①---|
口口口口 |----|
口口口口
口①①口

口口口口
口口口口
口口口口 |----|
②口②口 |--②-|
20
口口口口 |①---|
口口口口 |--②-|
①口①口 |----|
③口③② |③---|
21
口①口① |①---|
②口②口 |②-③-|
③口③口 |----|
口口④④ |④---|
22
口口口口 |①---|
口口口口 |----|
口口口口
①①口口

②口口③
口②③口
④口口口 |②---③-|
口④口口 |--④---|
23
口②口口 |①---|
口口③口 |----|
口口口① |--②-|
口④①口 |③-④-|
24
①口①口 |①---|
口③口③ |②-③-|
口②⑤② |----|
口④口口 |④-⑤-|
25
口①口① |①---|
③口③口 |②-③-|
④口口⑤ |----|
②口②口 |④-⑤-|
26
口①①口 |①---②-|
④②②④ |--③---|
⑥③③⑥ |④---⑤-|
⑤口口⑤ |--⑥---|
27
①①①① |①---|
口口口口 |----|
口口口口 |----|
口口口口 |----|
28
②口口② |①---|
口口口口 |--②-|
口①①口
口口口口

口口口口
口口口口
口口④口 |----|
口③口口 |③-④-|
29
②①口③ |①---|
口④⑤口 |--②-|
口口⑥口 |③-④-|
口口口口 |⑤-⑥-|
30
口口口口 |①---|
口②③口 |--②-|
口口口口 |③---|
①④⑤① |④-⑤-|
31
口②口口 |①---|
①口③① |--②-|
口④口口 |③-④-|
口⑥⑤口 |⑤-⑥-|
32
②口口③ |①---|
②口口③ |--②-|
①口口① |③---|
口口口口 |----|
33
口④⑤口 |①---|
口口口口 |--②-|
③口口② |③---④-|
口①①口 |--⑤---|
34
②口口③ |①---|
口④口口 |--②-|
口口口口 |③---|
口①①口 |--④-|
35
口口口口 |①---|
②⑤口② |--②-|
口口④口 |③---④-|
①③口① |--⑤---|
36
①①①① |①---|
口口口口 |----|
口口③口 |----|
口②口口 |②-③-|
37
②①口③ |①---|
口④⑤口 |--②-|
口⑥口口 |③-④-|
口口口口 |⑤-⑥-|
38
口口②② |①---|
口口口口 |--②-|
口口口口
①口①口

③③口口
口口口口
口口口口 |③---|
口④⑤口 |④-⑤-|
39
口②③口 |①---|
①口口① |--②-|
口④口口 |③---④-|
口口⑤口 |--⑤---|
40
②口口③ |①---|
口②③口 |--②-|
①口口① |③---|
①口口① |----|
41
口④⑤口 |①---|
口口口口 |--②-|
③口口② |③---④-|
口①①口 |--⑤---|
42
②口口③ |①---|
口④口口 |--②-|
口口口口 |③---|
口①①口 |--④-|
43
口口口口 |①---|
②⑤口② |--②-|
①口④① |③---④-|
①③口① |--⑤---|
44
①口口① |①---|
口口口口 |----|
口口口口 |----|
口口口口 |----|
45
口口口口 |①---|
口口口口 |----|
①①①①
口口口口

口口口口
②口口②
③口口③ |----|
口口口口 |②-③-|
46
口口口口 |①---|
口口口口 |----|
口口口口 |----|
①①①① |----|
47
⑤口口⑤ |①---|
④口口④ |----|
③口口③ |②-③-|
②①①② |④-⑤-|
48
口口口口 |①---|
口②③口 |----|
口口口口 |--②-|
口①①口 |--③-|
49
口口口口 |①---|
②口口② |----|
口口口口 |--②-|
口①①口 |----|
50
①②口口 |①-②-|
口③④口 |③-④-|
口口⑤⑥ |⑤-⑥-|
口⑦⑧口 |⑦-⑧-|
51
口口口口 |①---|
口口口口 |----|
口口口口 |----|
①口口① |----|
52
口口口口 |----|
口口口口 |----|
口口口口 |----|
口口口口 |----|
53
口口口口 |①---|
口口口口 |----|
①口口① |----|
口口口口 |----|
54
口②②口 |①---|
②①①② |----|
①口口① |②---|
口口口口 |----|
55
①口口① |①---|
②③④⑤ |----|
口口口口 |②-③-|
口口口口 |④-⑤-|
56
口口口口 |①-②-|
口⑥⑥口 |③-④-|
④③②① |--⑤-|
⑤口口⑤ |-⑥--|
57
①②口① |①---|
口口③口 |----|
口④口口 |②--③|
口口口口 |-④--|
58
口口口口 |①-②-|
①口口① |----|
②口③② |----|
口口口口 |-③--|
59
①②③④ |①-②-|
口口口口 |③-④-|
⑤⑥⑦⑧ |⑤-⑥-|
口口口口 |⑦-⑧-|
60
⑤口口口 |①-②-|
④③②① |③-④-|
口口口口 |⑤---|
口口口口 |----|
61
口口口口 |①-②-|
⑧⑦⑥⑤ |③-④-|
口口口口 |⑤-⑥-|
①②③④ |⑦-⑧-|
62
口口口口 |①-②-|
口口口口 |③-④-|
①②③④ |----|
口口口口 |----|
63
口口口口 |----|
口口口口 |①---|
口②口① |--②-|
①口②口 |----|
64
③口口③ |①---|
②口口② |--②-|
口口①口 |--③-|
口①口口 |----|
65
口口口口 |----|
口口口口 |①---|
口②口① |--②-|
①口②口 |----|
66
③③③③ |①---|
②口口② |--②-|
口口①口 |--③-|
口①口口 |----|
67
口口口口 |----|
口口口口 |----|
口口口口 |----|
口口口口 |----|
68
口口口口 |----|
口口口口 |----|
口口口口 |----|
口口口口 |----|
69
口⑥⑥口 |①②③④|
①⑤⑤② |-⑤-⑥|
③口口④ |----|
口口口口 |----|


不確定度: 0

最終更新:2013年03月29日 22:28