愛と勇気の三度笠ポン太
荒牧陽子

EXTREME

Level: 8
BPM: 160
Notes: 618

1
口口口口 |----|
口口口口 |----|
口口口口 |----|
口口口口 |----|
2
③⑦⑥③ |①-②-|
口口口口 |③-④-|
⑦④⑤⑥ |⑤-⑥-|
口①②口 |--⑦-|
3
⑧口口⑧ |①-②-|
⑦口口⑦ |③-④-|
⑥③④⑥ |⑤-⑥-|
⑤①②⑤ |⑦-⑧-|
4
口⑦⑥口 |①-②-|
口①②口 |③-④-|
⑦④⑤⑥ |⑤-⑥-|
③口口③ |--⑦-|
5
口⑥⑥口 |①-②-|
⑥口口⑥ |③-④-|
口③④口 |⑤-⑥-|
⑤①②⑤ |----|
6
③⑦⑥③ |①-②-|
口口口口 |③-④-|
⑦④⑤⑥ |⑤-⑥-|
口①②口 |--⑦-|
7
⑧口口⑧ |①-②-|
⑦口口⑦ |③-④-|
⑥③④⑥ |⑤-⑥-|
⑤①②⑤ |⑦-⑧-|
8
口⑦⑥口 |①-②-|
口①②口 |③-④-|
⑦④⑤⑥ |⑤-⑥-|
③口口③ |--⑦-|
9
⑥⑥⑥⑥ |①-②-|
口口口口 |③-④-|
口③④口 |⑤-⑥-|
⑤①②⑤ |----|
10
口口口口 |----|
口口口口 |----|
口口口口 |----|
口口口口 |----|
11
⑤口口① |①-②③|
⑤②口① |④-⑤-|
口口③口
口④口口

口口口⑨
口口⑥⑨
口⑦口口 |⑥⑦⑧-|
口口⑧口 |⑨---|
12
④口口④ |--①-|
口③口口 |②-③-|
⑤口②⑤ |④---|
口①口口 |⑤---|
13
③②④② |①---|
口口②口 |--②-|
口①口口 |----|
①口①口 |③-④-|
14
⑤③⑤③ |①---|
口口口口 |②-③-|
②①②① |--④-|
④口④口 |⑤---|
15
口口口口 |①---|
口①①口 |----|
口①①口 |----|
口口口口 |----|
16
口⑤口⑤ |--①-|
③口口② |②-③-|
口④口④ |④---|
口①口口 |⑤---|
17
④口④口 |①---|
②口②口 |--②-|
①③①③ |----|
②口②口 |③-④-|
18
口②口② |①---|
③①③口 |--②-|
①④①④ |--③-|
③①③口 |④---|
19
①口①口 |①---|
口①口口 |----|
①口①口
口口口口

口口口口
口口口口
②口②口 |----|
口口口口 |--②-|
20
①①①口 |①---|
口口口口 |--②-|
口口口口
口②口口

口③口口
口口口口
口口口口 |----|
口口口口 |③---|
21
②口②口 |①---|
口口口口 |②-③-|
口①①①
口③③③

口口口口
④口口口
口④口口 |----|
④口口口 |④---|
22
口口口① |①---|
口口①口 |----|
口口口①
口口口口

口④②口
口③口③
口口②④ |②---③-|
口口口口 |--④---|
23
②口口① |①---|
口口口③ |----|
口①口口 |--②-|
口④口口 |③-④-|
24
口①①① |①---|
口口口口 |②-③-|
口③⑤③ |----|
②④②口 |④-⑤-|
25
①①①口 |①---|
③口③口 |②-③-|
口②口②
口口口口

口④口⑤
口口口口
口口口口 |----|
口口口口 |④-⑤-|
26
③④④⑤ |①---②-|
②③口⑥ |--③---|
⑤⑥②⑤ |④---⑤-|
①⑥②口 |--⑥---|
27
②③⑤④ |①-②-|
①口①口 |③-④-|
口口①口 |⑤-⑥-|
⑦⑥口⑧ |⑦-⑧-|
28
⑤口口④ |①②③④|
口口口口 |⑤-⑥⑦|
③①⑦②
口⑥口口

口口口口
口⑧口口
口口口⑩ |⑧---|
⑨口口口 |⑨-⑩-|
29
①口口口 |①---|
口②口口 |--②-|
⑤口③⑥ |③-④-|
口④口口 |⑤-⑥-|
30
①口①口 |①---|
口口口口 |--②-|
口②③⑤ |③---|
④口口口 |④-⑤-|
31
口①口① |①---|
②口口口 |--②-|
口口口口
口口口口

口⑤口口
口口④口
⑥③口口 |③-④-|
口口口口 |⑤-⑥-|
32
②口③口 |①---|
口③口② |--②-|
口口口口 |③---|
口①口① |----|
33
②⑤口② |①---|
口口④口 |--②-|
口③口口 |③---④-|
①①①① |--⑤---|
34
②④④③ |①---|
口口口口 |--②-|
①③②① |③---|
①①①① |--④-|
35
②口口② |①---|
①口口① |--②-|
①口口①
①口口①

口口口口
口③③口
⑤口口⑤ |③---④-|
口④④口 |--⑤---|
36
口①①口 |①---|
①②③① |----|
口①①口 |----|
口口口口 |②-③-|
37
口②口② |①---|
⑥③口③ |--②-|
①口④① |③-④-|
⑤口口口 |⑤-⑥-|
38
口口口口 |①---|
口②①② |--②-|
口①口①
口②①②

③口③口
⑤口⑤口
③口③口 |③---|
④口④口 |④-⑤-|
39
②①口① |①---|
④②口③ |--②-|
口⑤③口 |③---④-|
口④⑤口 |--⑤---|
40
②②③③ |①---|
口②③口 |--②-|
①口口① |③---|
①口口① |----|
41
②口口② |①---|
⑤口④口 |--②-|
口③口口 |③---④-|
①①①① |--⑤---|
42
③③②② |①---|
口②③口 |--②-|
①④④① |③---|
口①①口 |--④-|
43
④⑤⑤④ |①---|
①③③① |--②-|
①口口① |③---④-|
①②口① |--⑤---|
44
口口口口 |①---|
①口口① |----|
口①①口 |----|
①口口① |----|
45
口⑥⑦口 |①②③④|
③口口② |⑤-⑥⑦|
口口口口
⑤①口④

⑧口口口
口⑧口⑨
口口⑨口 |----|
口口口口 |⑧-⑨-|
46
②口口③ |①---|
口口口口 |----|
①口口口 |--②-|
口①口口 |--③-|
47
⑧口口⑧ |①-②-|
⑦口口⑦ |③-④-|
⑥③④⑥ |⑤-⑥-|
⑤①②⑤ |⑦-⑧-|
48
口⑦⑥口 |①-②-|
口①②口 |③-④-|
⑦④⑤⑥ |⑤-⑥-|
③口口③ |--⑦-|
49
口口口口 |①-②-|
口口口口 |③-④-|
⑥③④⑥ |⑤-⑥-|
⑤①②⑤ |----|
50
①②口口 |①②③④|
⑤⑥③④ |⑤⑥⑦⑧|
口口⑦⑧
口口口口

口口口口
口口⑮⑯
⑨⑩口口 |⑨⑩⑪⑫|
⑬⑭⑪⑫ |⑬⑭⑮⑯|
51
①①①① |①---|
口口口口 |----|
口口口口 |----|
口口口口 |----|
52
口口口口 |----|
口口口口 |----|
口口口口 |----|
口口口口 |----|
53
口①①口 |①---|
①①①① |----|
口口口口 |----|
口口口口 |----|
54
口口口口 |①---|
口口口口 |----|
①②②① |②---|
口①①口 |----|
55
口①①口 |①---|
口口口口 |----|
口口口口
口口口口

②口⑥口
③口⑦口
④口⑧口 |②③④⑤|
⑤口⑨口 |⑥⑦⑧⑨|
56
口①口⑤ |①②③④|
⑩②口⑥ |⑤⑥⑦⑧|
口③⑨⑦ |--⑨-|
⑨④⑩⑧ |-⑩--|
57
口①②① |①---|
③③②口 |----|
口①口口 |②--③|
⑤口④口 |-④-⑤|
58
口口口口 |①②③-|
口口口口 |----|
口①②③ |----|
⑥⑤④口 |-④⑤⑥|
59
①②③④ |①②③④|
⑧⑦⑥⑤ |⑤⑥⑦⑧|
⑨⑩⑪⑫ |⑨⑩⑪⑫|
⑯⑮⑭⑬ |⑬⑭⑮⑯|
60
④③②① |①②③④|
⑤⑥⑦⑧ |⑤⑥⑦⑧|
⑨口口口 |⑨---|
口口口口 |----|
61
②③口① |①-②③|
⑦⑥⑤④ |④⑤⑥⑦|
⑮⑭⑬⑫ |⑧⑨⑩⑪|
⑧⑨⑩⑪ |⑫⑬⑭⑮|
62
①②③④ |①②③④|
⑧⑦⑥⑤ |⑤⑥⑦⑧|
口口口口 |----|
口口口口 |----|
63
口①①口 |----|
②②②② |①---|
口①①口 |--②-|
口口口口 |----|
64
②①①③ |①---|
口②③口 |--②-|
①口口① |--③-|
③口口② |----|
65
口③③口 |①-②-|
④④④④ |③---|
①③③② |--④-|
口①②口 |----|
66
②①①③ |①---|
口②③口 |--②-|
①③②① |--③-|
③口口② |----|
67
口口口口 |----|
口口口口 |----|
口口口口 |----|
口口口口 |----|
68
口口口口 |----|
口口口口 |----|
口口口口 |----|
口口口口 |----|
69
⑤⑤⑥⑥ |①②③④|
口口口口 |-⑤-⑥|
①③④②
口口口口

口口口口
⑧⑦⑧⑦
⑧⑧口口 |---⑦|
⑧⑦⑧⑦ |--⑧-|


不確定度: 0

最終更新:2013年03月29日 22:28