Y.M.C.A.
VILLAGE PEOPLE

BASIC

Level: 2
BPM: 123-126
Notes: 224

全程BPM: 123-126飄忽不定
1
口口口口 |----|
口口口口 |----|
口口口口 |----|
口口口口 |----|
2
口①口口 |①---|
口口口口 |----|
口口②口 |②---|
口口口口 |----|
3
口口②口 |①---|
①口口口 |----|
口口口口 |②---|
口口口口 |----|
4
口口口口 |①---|
口口口口 |----|
口①口口 |②---|
口口口② |----|
5
口口口口 |①---|
口口①口 |----|
口口口口 |②---|
口②口口 |----|
6
①口口① |①---|
②口口② |----|
口口口口 |②---|
口口口口 |----|
7
口口口口 |①---|
口口口口 |----|
①口口① |----|
口口口口 |----|
8
①口口② |①-②-|
口口口口 |----|
口口口口 |----|
口口口③ |③---|
9
口口口口 |①---|
口口口口 |②---|
口口②① |③---|
口口③④ |④---|
10
口口口③ |①-②-|
口口口口 |----|
①口口② |----|
口口口口 |③---|
11
口口③④ |①---|
口口②① |②---|
口口口口 |③---|
口口口口 |④---|
12
口口口口 |①-②-|
①口口② |----|
口口口口
口口口口

口口口口
口口口③
口口口口 |----|
口口口口 |③---|
13
口口口口 |①---|
口口③④ |②---|
口口②① |③---|
口口口口 |④---|
14
①口口① |①---|
②口口② |--②-|
③口口③ |----|
口口口口 |③---|
15
口口口口 |--①-|
口口口口 |----|
口③③口 |②---|
①②②① |③---|
16
②口口① |①-②-|
口口口口 |----|
口口口口 |----|
③口口口 |③---|
17
口口口口 |①---|
口口口口 |②---|
①②口口 |③---|
④③口口 |④---|
18
③口口口 |①-②-|
口口口口 |----|
②口口① |----|
口口口口 |③---|
19
④③口口 |①---|
①②口口 |②---|
口口口口 |③---|
口口口口 |④---|
20
口口口口 |①-②-|
②口口① |----|
口口口口
口口口口

口口口口
③口口口
口口口口 |----|
口口口口 |③---|
21
口口口口 |①---|
④③口口 |②---|
①②口口 |③---|
口口口口 |④---|
22
口①①口 |①---|
②口口② |--②-|
口③③口 |----|
口口口口 |③---|
23
口口口口 |--①-|
口口口口 |----|
口③③口 |②---|
①②②① |③---|
24
①口口① |①---|
②口口② |②---|
③口口③ |③---|
④口口④ |④---|
25
口口口口 |①---|
口口口口 |----|
口口口口 |----|
口①①口 |----|
26
①①①① |①---|
②①①② |----|
②③③② |②---|
口④④口 |③-④-|
27
口口口口 |----|
口口口口 |----|
口口口口 |----|
口口口口 |----|
28
①①①① |①---|
②①①② |----|
②③③② |②---|
口④④口 |③-④-|
29
口口口口 |----|
①口口口 |----|
口口口口 |----|
口口口口 |①---|
30
口口口口 |①---|
口口口① |②---|
②口④③ |③---|
口口口口 |④---|
31
口口口口 |①---|
口口口口 |②---|
口①口口 |③---|
口②③④ |④---|
32
口口口口 |①---|
口④③② |②---|
口口口① |③---|
口口口口 |④---|
33
口口口口 |①---|
①口口口 |----|
口口口口 |----|
口口口口 |----|
34
②④④② |①---|
②③③② |----|
①①①① |②---|
口①①口 |③-④-|
35
口口口口 |----|
口口口口 |----|
口口口口 |----|
口口口口 |----|
36
②④④② |①---|
②③③② |----|
①①①① |②---|
口①①口 |③-④-|
37
口口口口 |----|
口口口口 |----|
口口①口 |----|
口口口口 |①---|
38
口③④口 |①---|
口②①口 |②---|
口口口口 |③---|
口口口口 |④---|
39
口口口① |①---|
口④③② |②---|
口口口口 |③---|
口口口口 |④---|
40
口口口口 |①---|
①口口② |②---|
③口口④ |③---|
口口口口 |④---|
41
口口口口 |①---|
口口口口 |②---|
口口口口 |----|
①口口② |----|
42
口口口口 |①---|
①①①① |----|
口①①口
口口口口

口口口口
口口口口
②③③② |②---|
②④④② |③-④-|
43
口口口口 |----|
口口口口 |----|
口口口口 |----|
口口口口 |----|
44
口口口口 |①---|
①①①① |----|
口①①口
口口口口

口口口口
口口口口
②③③② |②---|
②④④② |③-④-|
45
口口口口 |----|
口口口口 |----|
口口口口 |----|
口口口口 |----|
46
①口口口 |①---|
口②口口 |----|
口口口口 |②---|
口口口口 |----|
47
口口①口 |①---|
口口口② |----|
口口口口 |②---|
口口口口 |----|
48
口口口口 |①---|
口口口口 |----|
口口口① |②---|
口口②口 |----|
49
口口口口 |①---|
口口口口 |----|
口①口口 |----|
口口口口 |----|

BPM: 120
50
①①①① |①---|
②①①② |----|
②③③② |②---|
口④④口 |③-④-|


不確定度: 0

最終更新:2013年03月29日 22:21