Y.M.C.A.
VILLAGE PEOPLE

ADVANCED

Level: 5
BPM: 123-126
Notes: 429

全程BPM: 123-126飄忽不定
1
口口口口 |----|
口口口口 |----|
口口口口 |----|
口口口口 |----|
2
口①②口 |①---|
口③④口 |②---|
口口口口 |③---|
口口口口 |④---|
3
口口口口 |①---|
口口口口 |②---|
口①②口 |③---|
口③④口 |④---|
4
④口口④ |①---|
③口口③ |②---|
②口口② |③---|
①口口① |④---|
5
口①①口 |①---|
②口口② |②---|
口③③口 |③---|
④口口④ |④---|
6
①①①① |①---|
口②②口 |②---|
③③③③ |③---|
口④④口 |④---|
7
①①①① |①---|
口②②口 |②---|
口口口口 |----|
口口口口 |----|
8
②口口① |①-②-|
②口口① |----|
口口口口
口口口口

口口口口
③口口口
④口口口 |----|
口口口口 |③-④-|
9
口⑥⑤口 |①-②-|
⑦口口④ |③-④-|
口口口③ |⑤-⑥-|
口①②口 |⑦---|
10
口口口口 |①-②-|
口口口口 |----|
②口口①
②口口①

口口口口
③口口口
④口口口 |----|
口口口口 |③-④-|
11
口⑥⑤口 |①-②-|
⑦口口④ |③-④-|
口口口③ |⑤-⑥-|
口①②口 |⑦---|
12
③口口① |①-②-|
口④口① |----|
②口口口 |----|
②口口口 |③-④-|
13
⑤⑥口口 |①-②-|
④⑦⑦口 |③-④-|
③①口口 |⑤-⑥-|
②口口口 |⑦---|
14
口口②② |①---|
②②口口 |--②-|
①①①①
口口口口

口口口口
口口口口
口口③③ |----|
③③口口 |③---|
15
口口口口 |--①-|
口口①① |----|
①①口口
口口口口

口口口口
口口口口
口③口② |②---|
③口②口 |③---|
16
①口口② |①-②-|
①口口② |----|
口口口口
口口口口

口口口③
口口④口
口口口口 |----|
口口口口 |③-④-|
17
⑥⑦⑦口 |①-②-|
口⑤口口 |③-④-|
口①④口 |⑤-⑥-|
②口口③ |⑦---|
18
口口口口 |①-②-|
口口口口 |----|
①口口②
①口口②

口口口口
口口④口
口口口③ |----|
口口口口 |③-④-|
19
口①口口 |①-②-|
②口口口 |③-④-|
口③口口
口口④口

口⑦口口
口口⑥口
口口口⑤ |⑤-⑥-|
口口口口 |⑦---|
20
口口口② |①-②-|
口口口② |----|
①④④口 |----|
①③③口 |③-④-|
21
口②②口 |①-②-|
③①①③ |③-④-|
④口口④
口口口口

口口口口
口⑦⑦口
口⑥⑥口 |⑤-⑥-|
口⑤⑤口 |⑦---|
22
口口口口 |①---|
①②②① |--②-|
①②②①
口口口口

口口口口
口口口口
③口口③ |----|
③口口③ |③---|
23
①②②① |--①-|
①③③① |----|
口口口口 |②---|
口口口口 |③---|
24
③③③口 |①---|
口④④④ |②---|
①①①口 |③---|
口②②② |④---|
25
口⑦⑥⑤ |①-②-|
口口口④ |③-④-|
①①①③ |⑤-⑥-|
口口口② |⑦---|
26
口口口口 |①---|
①①①① |----|
口①①口
口口口口

②②②②
口③③口
口④④口 |②---|
口口口口 |③-④-|
27
口口口口 |--①-|
①口口口 |②-③-|
②口口口 |④-⑤-|
③④⑤⑥ |⑥---|
28
①①①① |①---|
④①①④ |----|
③口口③ |②---|
②②②② |③-④-|
29
口口口口 |----|
口①①口 |----|
②口口② |----|
口口口口 |①-②-|
30
⑦⑤⑤⑦ |①-②-|
④⑥⑥④ |③-④-|
口③③口 |⑤---|
②①①② |⑥-⑦-|
31
⑦口口⑦ |①-②-|
①⑥⑥① |③-④-|
⑤②②⑤ |⑤-⑥-|
③④④③ |⑦---|
32
口①①口 |①-②-|
②口口② |③-④-|
口③③口
④口口④

口⑧⑧口
⑦口口⑦
⑥口口⑥ |⑤-⑥-|
口⑤⑤口 |⑦-⑧-|
33
①口口① |①-②-|
⑦②口口 |③-④-|
⑥③口口 |⑤-⑥-|
⑤④口口 |⑦---|
34
①①①① |①---|
口①①口 |----|
口口口口
口口口口

口口口口
口④③口
②④③② |②---|
②口口② |③-④-|
35
口⑥⑤④ |--①-|
口口口③ |②-③-|
口口口② |④-⑤-|
口口口① |⑥---|
36
口口口口 |①---|
口口口口 |----|
①①①①
口①①口

②口口②
②③④②
口③④口 |②---|
口口口口 |③-④-|
37
口口口口 |----|
口①①口 |----|
②口口② |----|
口口口口 |①-②-|
38
口⑤⑤口 |①-②-|
④⑥⑥④ |③-④-|
⑦③③⑦ |⑤---|
②①①② |⑥-⑦-|
39
⑥⑤⑤⑥ |①-②-|
④⑦⑦④ |③-④-|
口③③口 |⑤---|
②①①② |⑥-⑦-|
40
口口口口 |①-②-|
④口口④ |③-④-|
①③③①
口②②口

口⑤⑤口
口⑥⑥口
⑦口口⑦ |⑤-⑥-|
口口口⑧ |⑦-⑧-|
41
口口口口 |①-②-|
⑤口口口 |③-④-|
④口口口 |⑤---|
③②①口 |----|
42
①①①① |①---|
口①①口 |----|
口口口口
口口口口

口④③口
口口口口
②口口② |②---|
②④③② |③-④-|
43
口口口口 |----|
口口口口 |----|
口口口口 |----|
口口口口 |----|
44
口口口口 |①---|
口口口口 |----|
①①①①
口①①口

②③④②
②口口②
口口口口 |②---|
口③④口 |③-④-|
45
口口口口 |----|
口口口口 |----|
口口口口 |----|
口口口口 |----|
46
①①②③ |①---|
口口口③ |②---|
口口口④ |③---|
口口口口 |④---|
47
③口口口 |①---|
③口口口 |②---|
②①①口 |③---|
口口口口 |----|
48
口①①口 |①---|
口口②口 |②---|
口口③口 |③---|
口④③口 |④---|
49
口口口口 |①---|
口口口口 |----|
①口口口 |----|
①口口口 |----|

BPM: 120
50
①①①① |①---|
口①①口 |----|
②②②② |②---|
④③③④ |③-④-|


不確定度: 0

最終更新:2013年03月29日 22:21