Y.M.C.A.
VILLAGE PEOPLE

EXTREME

Level: 7
BPM: 123-126
Notes: 556

全程BPM: 123-126飄忽不定
1
口口口口 |----|
口口口口 |----|
口口口口 |----|
口口口口 |----|
2
口①②口 |①---|
口③④口 |②---|
口口口口 |③---|
口口口口 |④---|
3
口口口口 |①---|
口口口口 |②---|
口①②口 |③---|
口③④口 |④---|
4
④口口④ |①---|
③口口③ |②---|
②口口② |③---|
①口口① |④---|
5
口口口口 |①-②-|
⑤①①⑤ |③-④⑤|
④②②④
口③③口

口⑥⑥口
口⑦⑦口
口⑧⑧口 |-⑥⑦-|
口口口口 |⑧---|
6
④口口④ |①---|
③③③③ |②---|
②口口② |③---|
①①①① |④---|
7
口口口口 |①---|
口口口口 |②---|
②口口② |----|
①①①① |----|
8
②②②② |①-②-|
③①①③ |----|
④口口④ |----|
口①①口 |③-④-|
9
⑤口口⑤ |①-②-|
④⑥⑥④ |③-④-|
⑦③③⑦ |⑤-⑥-|
②①①② |⑦---|
10
口①①口 |①-②-|
④口口④ |----|
③①①③ |----|
②②②② |③-④-|
11
②①①② |①-②-|
⑦③③⑦ |③-④-|
④⑥⑥④ |⑤-⑥-|
⑤口口⑤ |⑦---|
12
②②②② |①-②-|
③①①③ |----|
④口口④ |----|
口①①口 |③-④-|
13
⑥⑤⑤⑥ |①-②-|
④⑦⑦④ |③-④-|
口③③口 |⑤-⑥-|
②①①② |⑦---|
14
口口②② |①---|
②②口口 |--②-|
③③①① |----|
①①③③ |③---|
15
①①口口 |--①-|
口口①① |----|
③③②② |②---|
③③②② |③---|
16
①①②② |①-②-|
口①②口 |----|
口口口口
口口口口

④④③③
口口口口
口口口口 |----|
口口口口 |③-④-|
17
口口口口 |①-②-|
①口口④ |③-④-|
①口口④
②②③③

⑥⑥⑤⑤
⑦口口口
⑦口口口 |⑤-⑥-|
口口口口 |⑦---|
18
口口口口 |①-②-|
口②②口 |----|
口②①①
口口①口

口口口口
口口口口
口口口口 |----|
④④③③ |③-④-|
19
②②③③ |①-②-|
①口口④ |③-④-|
①口口④
口口口口

口口口口
⑦口口口
⑦口口口 |⑤-⑥-|
⑥⑥⑤⑤ |⑦---|
20
①①②② |①-②-|
口①②口 |----|
口④④口 |----|
口③③口 |③-④-|
21
③②②③ |①-②-|
④①①④ |③-④-|
⑤口口⑤ |⑤-⑥-|
⑥⑦⑦⑥ |⑦---|
22
①口口① |①---|
①口口① |--②-|
②口口②
②口口②

③口口③
③口口③
口口口口 |----|
口口口口 |③---|
23
口口口口 |--①-|
口③口口 |----|
①②③① |②---|
①口②① |③---|
24
①③①③ |①---|
①③①③ |②---|
④②④② |③---|
④②④② |④---|
25
①②①口 |①-②-|
①③①口 |③-④-|
口④口口 |⑤-⑥-|
口⑤⑥⑦ |⑦---|
26
①①①① |①---|
口①①口 |----|
口口口口
口口口口

口口④口
口④③③
②③口② |②---|
②口③② |③-④-|
27
口口口口 |--①-|
①口口口 |②-③-|
②口口口 |④-⑤-|
③④⑤⑥ |⑥---|
28
口口口口 |①---|
①①①① |----|
口①①口
口口口口

口④③③
④③口口
②口③② |②---|
②口口② |③-④-|
29
口口口口 |----|
①口口① |----|
②口口② |----|
口口口口 |①-②-|
30
④口口口 |①-②-|
口③③④ |③-④-|
口②②口
口①①口

口口口⑤
⑤口口口
⑥⑧口⑦ |⑤-⑥-|
⑦口⑧⑥ |⑦-⑧-|
31
④②③④ |①-②-|
口③②口 |③-④-|
口口①口
口①口口

口⑧口口
⑤口口⑤
⑥口口⑥ |⑤-⑥-|
⑦口⑧⑦ |⑦-⑧-|
32
口口③④ |①-②-|
口①②口 |③-④-|
口②①口
④③口口

⑦口口口
⑥口口⑤
⑤口⑧⑥ |⑤-⑥-|
口口⑧⑦ |⑦-⑧-|
33
口②①口 |①-②-|
口③①口 |③-④-|
⑦④口口 |⑤-⑥-|
⑥⑤口口 |⑦---|
34
①①①① |①---|
口①①口 |----|
口口口口
口口口口

口口④口
口④③③
②③口② |②---|
②口③② |③-④-|
35
口口口口 |--①-|
口口口口 |②-③-|
⑤④③② |④-⑤-|
⑥口口① |⑥---|
36
①①①① |①---|
口①①口 |----|
口口口口
口口口口

口③④口
③④口口
②③③② |②---|
②口口② |③-④-|
37
口①①口 |----|
②口口② |----|
口口口口 |----|
口口口口 |①-②-|
38
口口口口 |①-②-|
口①①口 |③-④-|
②③③②
④口口④

⑥⑦⑦⑥
口⑧⑧口
口口口口 |⑤-⑥-|
口⑤⑤口 |⑦-⑧-|
39
⑤⑦⑧⑥ |①-②-|
⑥⑧⑦⑤ |③-④-|
④①①④ |⑤-⑥-|
③②②③ |⑦-⑧-|
40
口口口口 |①-②-|
口口口口 |③-④-|
③①②④
④②①③

⑥口口⑥
⑤口口⑤
口⑧⑧口 |⑤-⑥-|
口⑦⑦口 |⑦-⑧-|
41
⑤④④⑤ |①-②-|
②③③② |③-④-|
①口口① |⑤---|
口口口口 |----|
42
口口口口 |①---|
①①①① |----|
口①①口
口口口口

口口④口
口④③③
②③口② |②---|
②口③② |③-④-|
43
口口口口 |----|
口口口口 |----|
口口口口 |----|
口口口口 |----|
44
口口口口 |①---|
①①①① |----|
口①①口
口口口口

口③④口
③④口口
②③③② |②---|
②口口② |③-④-|
45
口口口口 |----|
口口口口 |----|
口口口口 |----|
口口口口 |----|
46
①①②③ |①---|
④口口③ |②---|
③口口④ |③---|
③②①① |④---|
47
③④口口 |①---|
③①①② |②---|
②①①③ |③---|
口口④③ |④---|
48
口口①① |①---|
口口口② |②---|
②口口口
①①口口

口④④口
口③③口
口③③口 |③---|
口口口口 |④---|
49
①口口① |①---|
①口口① |----|
口口口口 |----|
口口口口 |----|

BPM: 120
50
①①①① |①---|
口①①口 |----|
口口口口
口口口口

口口④口
口④③③
②③口② |②---|
②口③② |③-④-|


不確定度: 0

最終更新:2013年03月29日 22:20