LANA - ヒトリノウタ -
TOMOSUKE×Jazzin'park

BASIC

Level: 2
BPM: 180
Notes: 191

1
口②口口 |①---|
口①口口 |----|
口口口口 |②---|
口口口口 |----|
2
口口口口 |①---|
口口①口 |----|
口口②口 |----|
口口口口 |②---|
3
口口口口 |①---|
口口口口 |----|
口口口口 |----|
口口①口 |----|
4
口口口口 |①---|
口口口口 |----|
口口口口 |----|
口口①口 |----|
5
口口口口 |①---|
口口②口 |----|
口①口口 |②---|
口口口口 |----|
6
口口口口 |①---|
口口口口 |----|
口②口口 |②---|
口口①口 |----|
7
口口口口 |①---|
口口①口 |----|
口口口口 |②---|
口口②口 |----|
8
口口口口 |①---|
口②③口 |②---|
口①④口 |③---|
口口口口 |④---|
9
口口口口 |①---|
口口口口 |----|
口①口口 |----|
口口口口 |----|
10
口口口口 |①---|
口口口口 |----|
口②口口 |----|
口口①口 |②---|
11
口口口口 |①---|
口口口口 |----|
口口口口 |----|
口①口口 |----|
12
口口口口 |①---|
口口口口 |----|
口①口口 |----|
口口口口 |----|
13
口口口口 |①---|
口口②口 |----|
口①口口 |②---|
口口口口 |----|
14
口口口口 |①---|
口口口口 |----|
口②口口 |②---|
口口①口 |----|
15
口口口口 |①---|
口口①口 |----|
口口口口 |②---|
口口②口 |----|
16
口口口口 |①---|
口口口③ |----|
口①②口 |②---|
口口口口 |③---|
17
口口口口 |①---|
口①②口 |----|
口口口口 |----|
口口口口 |②---|
18
口口①口 |①---|
口口口口 |----|
口口口口 |----|
口口口口 |----|
19
口口口口 |①---|
口口口口 |②---|
口②口口 |----|
口①口口 |----|
20
口口口口 |----|
口口口口 |----|
口口口口 |----|
口口口口 |----|
21
口口口口 |----|
口①①口 |----|
口口口口 |①---|
口口口口 |----|
22
口②口口 |①---|
④口口③ |②---|
口口①口 |③---|
口口口口 |④---|
23
口口口口 |----|
口①①口 |----|
口口口口 |①---|
口口口口 |----|
24
口②口口 |①---|
④口口③ |②---|
口口①口 |③---|
口口口口 |④---|
25
口口口口 |①---|
口①①口 |----|
口口口口 |----|
口口口口 |----|
26
口口口口 |----|
口口口口 |----|
口口口口 |----|
口口口口 |----|
27
口口口口 |----|
口口口口 |----|
口口口口 |----|
口口口口 |----|
28
口口口口 |①---|
①②②① |----|
口口口口 |②---|
口口口口 |----|
29
口口口口 |①---|
①口口① |----|
口②口口 |②---|
口口口口 |----|
30
口口口口 |①---|
口口②口 |----|
口口①口 |②---|
口口口口 |----|
31
口口口口 |----|
口①口口 |----|
口口口口 |①---|
口口口口 |----|
32
口口口口 |①---|
口口口口 |----|
口①②口 |②---|
口口口口 |----|
33
口口口口 |①---|
①口口① |----|
口口口口 |----|
口口口口 |----|
34
口口口口 |----|
口口口口 |----|
口口口口 |----|
口口口口 |----|
35
口口口口 |----|
口口口口 |----|
口口口口 |----|
口口口口 |----|
36
口口口口 |----|
口①①口 |----|
口口口口 |①---|
口口口口 |----|
37
口口口口 |①---|
①口口① |----|
口口口口 |----|
口口口口 |----|
38
口口口口 |①---|
口①①口 |----|
口口口口 |----|
口口口口 |----|
39
口口口口 |----|
口口口口 |----|
口口口口 |----|
口口口口 |----|
40
口口口口 |----|
口口口口 |----|
口口口口 |----|
口口口口 |----|
41
口口口口 |①---|
②①①③ |----|
口口口口 |②---|
口口口口 |③---|
42
口①①口 |①---|
口口口口 |----|
口②②口 |②---|
口口口口 |----|
43
口口口口 |①---|
口口口口 |----|
①③②① |②---|
口口口口 |③---|
44
口口口口 |①---|
②口口② |②---|
①口口① |③---|
③口口③ |----|
45
口口口口 |----|
①口①口 |----|
口口口口 |①---|
口口口口 |----|
46
口口口口 |①---|
口①口① |----|
口②口② |②---|
口口口口 |----|
47
口口口口 |①---|
口口口口 |----|
①口①口 |----|
口②口口 |②---|
48
口③口口 |①---|
口②口口 |②---|
口①④口 |③---|
口口口口 |④---|
49
口口①口 |①---|
②口口口 |----|
口口口口 |----|
口口口口 |②---|
50
口口口口 |①---|
口口②① |②---|
口口口口 |----|
口③口口 |③---|
51
口①口口 |①---|
口②口③ |②---|
口口口口 |----|
口口口口 |③---|
52
口口口口 |①---|
①②③口 |②---|
口口口口 |③---|
口口口口 |----|
53
口①口口 |----|
口口口口 |----|
口口口口 |----|
口口口口 |①---|
54
口口口口 |①---|
口口①口 |②---|
口②口口 |----|
口口口口 |----|
55
口口口口 |----|
口口口口 |----|
口口①口 |----|
口口口口 |①---|
56
口口②口 |①---|
口①口口 |----|
口口口口 |②---|
口口口口 |----|
57
口口口口 |----|
①口口① |----|
口口口口 |①---|
口口口口 |----|
58
口口口口 |①---|
口口口口 |----|
①口口① |②---|
②口口② |----|
59
口口口口 |①---|
口①口口 |②---|
口口②口 |③---|
口③口口 |----|
60
口口口口 |①---|
口口①口 |②---|
口②口口 |③---|
口口③口 |----|
61
口口口口 |----|
口口口口 |----|
口口口口 |----|
口口口口 |----|
62
口口口口 |①---|
口口口口 |----|
②口口② |②---|
①口口① |----|
63
口口口口 |①---|
①②②① |----|
口口口口 |----|
口口口口 |②---|
64
①口口① |①---|
口口口口 |----|
口口口口 |----|
口口口口 |----|
65
口口口口 |----|
口口口口 |----|
口口口口 |----|
口口口口 |----|
66
口口口口 |----|
口口口口 |----|
口口口口 |----|
口口口口 |----|
67
口口口口 |----|
口①口口 |①---|
口口②口 |②---|
口口口口 |----|
68
口口口④ |①---|
口口③口 |②---|
口②口口 |③---|
①口口口 |④---|
69
口口口口 |----|
口口②口 |①---|
口③口① |②---|
口口口口 |③---|
70
④口口口 |①---|
口③口口 |②---|
口口②口 |③---|
口口口① |④---|
71
口口口口 |----|
口口②口 |①---|
口①口口 |②---|
口口口口 |----|
72
①口口口 |①---|
口②口口 |②---|
口口③口 |③---|
口口口④ |④---|
73
口口口口 |----|
口②口口 |①---|
①口③口 |②---|
口口口口 |③---|
74
口口口① |①---|
口口②口 |②---|
口③口口 |③---|
④口口口 |④---|
75
口口口口 |----|
口①口口 |①---|
口口②口 |②---|
口口口口 |----|
76
口口口④ |①---|
口口③口 |②---|
口②口口 |③---|
①口口口 |④---|
77
口口口口 |----|
口口②口 |①---|
口③口① |②---|
口口口口 |③---|
78
④口口口 |①---|
口③口口 |②---|
口口②口 |③---|
口口口① |④---|
79
口口口口 |----|
口口②口 |①---|
口①口口 |②---|
口口口口 |----|
80
①口口口 |①---|
口②口口 |②---|
口口③口 |③---|
口口口④ |④---|
81
口口口口 |----|
口②口口 |①---|
①口③口 |②---|
口口口口 |③---|
82
口口口① |①---|
口口②口 |②---|
口③口口 |③---|
④口口口 |④---|

不確定度: 1

最終更新:2013年03月29日 21:57