LANA - ヒトリノウタ -
TOMOSUKE×Jazzin'park

ADVANCED

Level: 5
BPM: 180
Notes: 320

1
口口口口 |①---|
口口②口 |----|
口①口口 |②---|
口口口口 |----|
2
口口口口 |①---|
口口口口 |----|
②口口② |----|
口口①口 |②---|
3
口口口口 |①---|
口口口口 |----|
口口口口 |----|
①口口① |----|
4
口口口口 |①---|
口口口口 |----|
口口口口 |----|
①口口① |----|
5
④②④口 |①---|
⑤③⑤口 |②-③-|
口口口口 |----|
①口口① |④-⑤-|
6
口口口口 |----|
口口口口 |①-②-|
口③①③ |----|
口④②④ |③-④-|
7
③①③口 |----|
口②口口 |①-②-|
口口口口 |----|
口口口口 |③---|
8
口口口口 |①---|
②口②口 |②---|
③①③口 |③---|
④口④口 |④---|
9
口口口口 |①---|
口口口口 |----|
口①口① |----|
口口口口 |----|
10
口口口口 |①---|
①口①口 |----|
口口口口 |----|
口口口口 |----|
11
口口口口 |----|
口口口口 |----|
口口口口 |----|
口口口口 |----|
12
口口口口 |----|
口口口口 |----|
口口口口 |----|
口口口口 |----|
13
⑤②⑤① |①---|
口③口口 |②-③-|
口④口口 |④---|
口口口口 |⑤---|
14
口口口口 |①---|
①口②口 |②-③-|
口口③口 |④---|
口⑤④⑤ |⑤---|
15
⑤②⑤口 |①---|
口③口口 |②-③-|
口④口① |④---|
口口口口 |⑤---|
16
口口口口 |----|
口③口口 |--①-|
口④口② |②--③|
口口①口 |--④-|
17
口口口口 |①---|
口②口② |----|
①口①口 |----|
口口口口 |②---|
18
口口口口 |----|
口口口口 |----|
口口口口 |----|
口口口口 |----|
19
口口口口 |①---|
口口口口 |②---|
口口①口 |----|
口口②口 |----|
20
口口口口 |----|
口口口口 |----|
口口口口 |----|
口口口口 |----|
21
口口口② |①---|
口口口口 |②---|
口口口口
口①①口

口口口口
口③口口
口口④口 |③---|
口⑤口口 |④-⑤-|
22
口口⑤⑤ |①-②-|
④口口口 |③---|
②口口③ |④---|
口口口① |⑤---|
23
①口口口 |----|
口③口② |①-②-|
口⑤④口 |③-④-|
口口口⑥ |⑤-⑥-|
24
⑦⑦口口 |①-②-|
口口⑥⑤ |③-④-|
③口口② |⑤-⑥-|
①④口口 |⑦---|
25
口口①① |①---|
①①口口 |----|
口口口口 |----|
口口口口 |----|
26
口口口口 |----|
口口口口 |----|
口口口口 |----|
口口口口 |----|
27
①口口① |----|
口口口口 |----|
口口口口 |----|
口口口口 |①---|
28
口口口口 |①---|
口口①口 |②---|
口②口口 |③---|
④口③④ |④---|
29
口口口口 |①---|
口口②口 |②---|
①④③① |③---|
口口口口 |④---|
30
口口口口 |①---|
口①②口 |②---|
口④③口 |③---|
口口口口 |④---|
31
口口口口 |----|
口②①口 |①---|
口③口口 |②---|
口口口口 |③---|
32
口口口口 |①---|
口③②口 |②---|
口④①口 |③---|
口口口口 |④---|
33
口口口口 |①---|
口②口口 |----|
口口①口 |②---|
口口口口 |----|
34
口口口口 |①---|
口口口口 |----|
口口①口 |----|
口口口口 |----|
35
口口口口 |①---|
口口口口 |----|
口口口口 |----|
口①口口 |----|
36
口口口口 |----|
①口口① |----|
口②口口 |①---|
口口③口 |②-③-|
37
口口口口 |----|
①口口① |----|
口口口口 |----|
口口口口 |①---|
38
口口口口 |----|
口口口口 |----|
口口口口 |----|
口口口口 |----|
39
口口口口 |----|
口口口口 |----|
口口口口 |----|
口口口口 |----|
40
口口口口 |----|
口口口口 |----|
口口口口 |----|
口口口口 |----|
41
③口③口 |①---|
口口口口 |----|
口②口② |②---|
①口①口 |③---|
42
口口口① |①-②-|
口口②口 |③---|
口④③④ |④---|
口口口口 |----|
43
口口口口 |①---|
口口口口 |----|
口②口③ |②---|
口口①口 |③---|
44
①口①口 |①---|
口②口② |②---|
③口③口 |③---|
口口口口 |----|
45
口④口口 |①---|
口口③口 |----|
口②口口 |②---|
口①①口 |③-④-|
46
口口④口 |----|
口③口口 |--①-|
口口②口 |②---|
口①口口 |③-④-|
47
口口口口 |----|
①口口① |----|
口口口口 |----|
口口口口 |①---|
48
口口口口 |①-②-|
口④①口 |--③-|
口口②口 |----|
口③口口 |④---|
49
①②口① |①---|
口口口口 |----|
口②口口 |----|
口口口口 |②---|
50
口口④口 |①-②-|
口①②口 |③---|
口口④口 |----|
口③口口 |④---|
51
口口口口 |①---|
⑤②①口 |②-③-|
口口口口 |----|
口③④口 |④-⑤-|
52
口口口口 |①---|
口口①口 |②-③-|
口口口口 |----|
口③口② |----|
53
口口口口 |----|
①②口口 |----|
口口口口 |----|
口口口口 |①-②-|
54
口口口口 |①---|
口口①口 |②-③-|
口口③② |----|
口口口口 |----|
55
口口口口 |----|
口口口口 |----|
口口①口 |----|
口口口口 |①---|
56
口口口口 |①---|
②口口口 |----|
口①口口 |②---|
口口口口 |----|
57
口口口口 |----|
①①口口 |----|
口口口口 |①---|
口口口口 |----|
58
口口口口 |①---|
口口口口 |----|
口口①① |②---|
②②口口 |----|
59
口口口口 |①---|
口口口口 |②---|
口③②① |③---|
口口口口 |----|
60
口口口口 |①---|
口②口口 |②---|
①口③口 |③---|
口口口口 |----|
61
口口口口 |----|
口口口口 |----|
口口①口 |----|
口口口口 |①---|
62
口⑤⑥口 |①---②-|
口口④口 |--③---|
口③口口 |④---⑤-|
口①②口 |--⑥---|
63
口口口口 |①---|
②①口② |----|
口口口口 |----|
口口口口 |②---|
64
①口口① |①---|
口口口口 |----|
口口口口 |----|
口口口口 |----|
65
口口口口 |----|
口口口口 |----|
口口口口 |----|
口口口口 |----|
66
口口口口 |----|
口口口口 |----|
口口口口 |----|
口口口口 |----|
67
口口③口 |①---|
口④口口 |②---|
口⑤口② |③---|
口①①口 |④-⑤-|
68
口⑤口⑤ |①-②-|
④口④③ |③---|
②口①口 |④---|
口口口口 |⑤---|
69
①口口口 |----|
口②口口 |①-②-|
口③口口 |③-④-|
口⑥⑤④ |⑤-⑥-|
70
⑤口⑤口 |①-②-|
口④口④ |③---|
①口③② |④---|
口口口口 |⑤---|
71
口口口口 |①---|
口④③口 |②---|
口⑤口② |③---|
口①①口 |④-⑤-|
72
口⑤口⑤ |①-②-|
④口④③ |③---|
②口①口 |④---|
口口口口 |⑤---|
73
①口口口 |----|
口②口口 |①-②-|
口③口口 |③-④-|
口⑥⑤④ |⑤-⑥-|
74
⑥口⑥口 |①-②-|
口⑤④⑤ |③-④-|
①口③② |⑤---|
口口口口 |⑥---|
75
口口口口 |①---|
口③④口 |②---|
②口⑤口 |③---|
口①①口 |④-⑤-|
76
⑤口⑤口 |①-②-|
③④口④ |③---|
口①口② |④---|
口口口口 |⑤---|
77
口口口① |----|
口口②口 |①-②-|
口口③口 |③-④-|
④⑤⑥口 |⑤-⑥-|
78
口⑥口⑥ |①-②-|
⑤④⑤口 |③-④-|
②③口① |⑤---|
口口口口 |⑥---|
79
口口口口 |①---|
口③④口 |②---|
②口⑤口 |③---|
口①①口 |④-⑤-|
80
⑤口⑤口 |①-②-|
③④口④ |③---|
口①口② |④---|
口口口口 |⑤---|
81
口口口① |----|
口口②口 |①-②-|
口口③口 |③-④-|
④⑤⑥口 |⑤-⑥-|
82
口⑥口⑥ |①-②-|
⑤④⑤口 |③-④-|
②③口① |⑤---|
口口口口 |⑥---|

不確定度: 1

最終更新:2013年03月29日 21:56