くちばしにチェリー
EGO-WRAPPIN'

EXTREME

Level: 8
BPM: 187
Notes: 638

全程BPM在187附近飄忽不定
1
口口口口 |------|
口口口口 |------|
口口口口 |------|
口口口口 |------|
2
口②③口 |------|
①口口口 |------|
口口口口 |------|
口口口口 |①-②-③-|
3
口⑩⑩② |①-②-③-|
口口③① |④-⑤-⑥-|
⑧④口⑨ |⑦---⑧-|
⑤⑥⑦口 |⑨---⑩-|
4
口口口口 |------|
口①口口 |------|
①口口口 |------|
口口口口 |----①-|
5
⑧⑥③⑤ |①---②-|
口口口口 |③---④-|
口口①口 |⑤---⑥-|
④②⑦① |⑦---⑧-|
6
口口③口 |①-----|
②口④③ |②---③-|
⑤②⑥口 |----④-|
口口口① |⑤---⑥-|
7
⑤③⑥⑧ |①---②-|
口口口口 |③---④-|
口口口口 |⑤---⑥-|
①⑦②④ |⑦---⑧-|
8
口③口口 |①-----|
③④口② |②---③-|
口⑥②⑤ |----④-|
①口口口 |⑤---⑥-|
9
⑧⑥③⑤ |①---②-|
口口口口 |③---④-|
口口口口 |⑤---⑥-|
④②⑦① |⑦---⑧-|
10
口口③口 |①-----|
②口④③ |②---③-|
⑤②⑥口 |----④-|
口口口① |⑤---⑥-|
11
⑥⑥口② |①---②-|
④口口⑤ |----③-|
口口口口 |④-----|
①口③口 |⑤---⑥-|
12
口口口③ |----①-|
④①②⑦ |②---③-|
⑥⑤⑧⑨ |④-⑤-⑥-|
口口口口 |⑦-⑧-⑨-|
13
⑦⑤②④ |----①-|
口口口口 |②---③-|
口口口口 |④---⑤-|
③①⑥口 |⑥---⑦-|
14
口口③口 |①-----|
②口④③ |②---③-|
⑤②⑥口 |----④-|
口口口① |⑤---⑥-|
15
⑤③⑥⑧ |①---②-|
口口口口 |③---④-|
口口口口 |⑤---⑥-|
①⑦②④ |⑦---⑧-|
16
口③口口 |①-----|
③④口② |②---③-|
口⑥②⑤ |----④-|
①口口口 |⑤---⑥-|
17
⑧⑥③⑤ |①---②-|
口口口口 |③---④-|
口口口口 |⑤---⑥-|
④②⑦① |⑦---⑧-|
18
口口③口 |①-----|
②口④③ |②---③-|
⑤②口口 |----④-|
口⑥⑥① |⑤---⑥-|
19
口口②① |----①-|
③口口④ |----②-|
口⑤口口 |③---④-|
口口口口 |⑤-----|
20
口②②口 |----①-|
②口②口 |------|
口口②② |②-----|
①①②② |------|
21
④⑤口② |----①-|
口①口口 |②-----|
③口口口 |③-----|
口口口④ |④---⑤-|
22
口⑤口口 |①-----|
②口口① |②-----|
③②口④ |----③-|
口口②④ |④---⑤-|
23
②口口口 |①---②-|
④口③① |③---④-|
⑥⑦⑤口 |⑤---⑥-|
⑦⑥③口 |---⑦--|
24
口口①口 |----①-|
口口口① |------|
口口口口 |------|
口口口② |②-----|
25
口③口口 |----①-|
⑤①口④ |②---③-|
口口⑥② |④---⑤-|
口口②⑥ |⑥-----|
26
口口口口 |①---②-|
口①口口 |----③-|
③②口口 |------|
②③口④ |④-----|
27
①口口⑤ |----①-|
②①口口 |----②-|
④口③口 |③-----|
口口口④ |④---⑤-|
28
口口口⑦ |----①-|
④①⑧⑨ |②---③-|
⑥⑤口② |④-⑤-⑥-|
口口③口 |⑦-⑧-⑨-|
29
②⑤③口 |①---②-|
⑦口口⑥ |③---④-|
口④②② |----⑤-|
①①口⑥ |⑥---⑦-|
30
②⑥口口 |①---②-|
⑤口③口 |③---④-|
口④①口 |------|
口口③⑤ |⑤---⑥-|
31
口⑤口口 |①---②-|
⑥②口① |③-----|
口口口③ |④-----|
④④③⑤ |⑤---⑥-|
32
口⑤④口 |----①-|
⑤①口④ |②---③-|
③口口② |----④-|
口③②口 |----⑤-|
33
口③口口 |------|
③口口口 |①-----|
①口口① |------|
口口①② |②---③-|
34
①口口口 |----①-|
口①口口 |------|
口口口口 |------|
口口口② |②-----|
35
③⑦⑦口 |----①-|
①口④口 |②---③-|
口⑤②口 |④---⑤-|
口口②⑥ |⑥---⑦-|
36
②口口② |----①-|
口口口口 |------|
③③口口 |②-----|
口①①口 |③-----|
37
④②⑤口 |①-----|
口口口③ |----②-|
⑥口口① |③---④-|
口口①口 |⑤---⑥-|
38
口②口口 |---①--|
②口②口 |---②--|
口口①① |------|
口口①① |------|
39
③①口口 |----①-|
口口口② |②---③-|
⑥④口口 |----④-|
口口口⑤ |⑤---⑥-|
40
④口⑦⑦ |①---②-|
②⑥⑤⑥ |③---④-|
口口③口 |⑤---⑥-|
口口①口 |---⑦--|
41
口②④口 |------|
口口口④ |---①--|
②③①口 |②---③-|
③口口① |--④---|
42
①③口口 |①---②-|
③①③口 |---③--|
口口②② |------|
口口②② |------|
43
⑤口口⑥ |----①-|
③①口口 |②---③-|
口口④口 |④-----|
口口②口 |⑤--⑥--|
44
口口口口 |①---②-|
口①口口 |--③---|
③②口口
②③口口

口④口口
⑥⑥口⑤
口口口口 |----④-|
口口口口 |⑤---⑥-|
45
口口口口 |----①-|
口口口口 |------|
②口口③ |----②-|
②①①③ |----③-|
46
①口口① |----①-|
口口口口 |------|
②①①⑤ |②-③-④-|
④③⑥⑦ |⑤-⑥-⑦-|
47
①③口① |①---②-|
口②②④ |----③-|
⑦⑤口口 |④---⑤-|
口口⑥口 |⑥---⑦-|
48
②口口口 |①-----|
②口①③ |②---③-|
口④口口 |----④-|
④⑤口③ |----⑤-|
49
⑧④口口 |①---②-|
②⑥口⑤ |③---④-|
口口③① |⑤---⑥-|
口口⑦口 |⑦---⑧-|
50
⑧口口口 |①---②-|
口口①口 |③---④-|
④⑧⑤③ |⑤---⑥-|
⑥②⑦口 |⑦---⑧-|
51
口②①① |----①-|
③⑤口口 |②---③-|
②⑦④⑥ |④---⑤-|
口口口口 |⑥---⑦-|
52
口⑥口口 |①---②-|
口⑤③口 |③---④-|
②口口口 |------|
口④④① |⑤---⑥-|
53
⑤⑥口口 |①---②-|
⑥⑤③口 |③---④-|
口②①口 |----⑤-|
口④口口 |----⑥-|
54
口口口口 |----①-|
口⑤口口 |②---③-|
③①口⑥ |④---⑤-|
口口④② |⑥-----|
55
①②②① |①-----|
③③口口 |②-----|
口④口口 |③---④-|
口⑥口⑤ |⑤---⑥-|
56
口②口口 |①---②-|
④⑥①④ |③---④-|
口⑤⑤口 |----⑤-|
口口③口 |----⑥-|
57
⑧口口口 |①---②-|
⑥口③⑤ |③---④-|
②⑥口⑦ |⑤---⑥-|
口④⑦① |⑦---⑧-|
58
⑤①④口 |----①-|
口③②口 |--②---|
①⑤口④ |③---④-|
③口口② |---⑤--|
59
口口口口 |----①-|
②③①④ |②---③-|
口⑥⑦⑦ |④---⑤-|
⑤①⑦⑦ |⑥---⑦-|
60
②①口口 |----①-|
①口①③ |----②-|
口口⑤口 |③---④-|
④⑥口口 |⑤---⑥-|
61
④④口口 |①---②-|
口口①⑥ |③-----|
②⑤口口 |④---⑤-|
口⑦③口 |⑥---⑦-|
62
③③口口 |①---②-|
口②①口 |----③-|
②⑤⑤④ |④-----|
口口④口 |⑤-----|
63
⑤口②② |①-----|
②⑤口④ |②-----|
口口④口 |③---④-|
①①③③ |----⑤-|
64
④④②② |----①-|
口口口口 |②-----|
①口口口 |③-----|
口口③③ |④-----|
65
口口②② |①-----|
口口口① |②-----|
口口口口
①①口口

口口口口
④口⑤⑤
口④口口 |③---④-|
口口③③ |----⑤-|
66
②③口② |----①-|
口口口口 |------|
①②②① |②-----|
口口口口 |③-----|
67
⑧⑥③⑤ |①---②-|
口口①① |③---④-|
口口口口 |⑤---⑥-|
④②⑦口 |⑦---⑧-|
68
口口③口 |①-----|
②口④③ |②---③-|
⑤②⑥口 |----④-|
口口口① |⑤---⑥-|
69
⑤③⑥⑧ |①---②-|
口口口口 |③---④-|
口口口口 |⑤---⑥-|
①⑦②④ |⑦---⑧-|
70
口③口口 |①-----|
③④口② |②---③-|
口⑥②⑤ |----④-|
①口口口 |⑤---⑥-|
71
⑧⑥③⑤ |①---②-|
口口口口 |③---④-|
口口口口 |⑤---⑥-|
④②⑦① |⑦---⑧-|
72
口口③口 |①-----|
②口④③ |②---③-|
⑤②⑥口 |----④-|
口口口① |⑤---⑥-|
73
⑤③⑥⑧ |①---②-|
口口口口 |③---④-|
口口口口 |⑤---⑥-|
①⑦②④ |⑦---⑧-|
74
口③口口 |①-----|
③口口② |②---③-|
口口②口
①口口口

口口口口
口④口口
口口口⑤ |----④-|
⑥⑥口口 |⑤---⑥-|
75
口③口① |----①-|
④口②口 |----②-|
③口①口 |----③-|
口④口② |----④-|
76
③口①口 |----①-|
口④口② |----②-|
口③口① |----③-|
④口②口 |----④-|
77
③口①口 |----①-|
口④口② |----②-|
③口①口 |----③-|
口④口② |----④-|
78
口③口① |----①-|
④口②口 |----②-|
口③口① |----③-|
④口②口 |----④-|
79
③口①口 |----①-|
口③口① |----②-|
口④口② |----③-|
④口②口 |----④-|
80
③口口① |----①-|
口③①口 |----②-|
口④②口 |----③-|
④口口② |----④-|
81
口④口口 |----①-|
⑥口①⑤ |----②-|
②口口① |③---④-|
口⑥③口 |⑤---⑥-|
82
①口口① |------|
口口口口 |------|
口①①口 |①-----|
口口口口 |------|


不確定度: 0

タグ:

+ タグ編集
  • タグ:

このサイトはreCAPTCHAによって保護されており、Googleの プライバシーポリシー利用規約 が適用されます。

最終更新:2013年04月07日 23:22