ETERNAL BLAZE


BASIC

Level: 1
BPM: 105-155
Notes: 133

BPM: 105
1
口口口口 |----|
口口口口 |----|
口口口口 |----|
口口口口 |----|
2
口口口口 |①---|
口口口口 |----|
①②口口 |②---|
口口口口 |----|
3
口口口口 |①---|
口口口口 |----|
口口①② |②---|
口口口口 |----|
4
口口口口 |①---|
口口②① |----|
口口口口 |②---|
口口口口 |----|
5
口口口口 |①---|
②①口口 |----|
口口口口 |②---|
口口口口 |----|
6
口口口口 |①---|
口①口口 |----|
口②口口 |②---|
口口口口 |----|

BPM: 155
7
口口口口 |①---|
口口口口 |----|
口口口口 |----|
口①口口 |----|
8
口口口口 |----|
口口口口 |----|
口口口口 |----|
口口口口 |----|
9
口口口口 |①---|
①②口口 |----|
口口口口 |②---|
口口口口 |----|
10
口口口口 |①---|
口口①口 |----|
口口口② |②---|
口口口口 |----|
11
口口口口 |①---|
口口②① |----|
口口口口 |②---|
口口口口 |----|
12
口口口口 |①---|
口①口口 |----|
②口口口 |②---|
口口口口 |----|
13
口口口口 |①---|
①②口口 |----|
口口口口 |②---|
口口口口 |----|
14
口口口口 |①---|
口口①口 |----|
口口口② |②---|
口口口口 |----|
15
口口口口 |①---|
口口②① |----|
口口口口 |②---|
口口口口 |----|
16
口口口口 |①---|
口①口口 |----|
②口口口 |②---|
口口口口 |----|
17
口口口口 |①---|
①②口口 |----|
口口口口 |②---|
口口口口 |----|
18
口口口口 |①---|
口口①② |----|
口口口口 |②---|
口口口口 |----|
19
口口口口 |①---|
口口口口 |----|
口口②① |②---|
口口口口 |----|
20
口口口口 |①---|
口口口口 |----|
②①口口 |②---|
口口口口 |----|
21
口口口口 |①---|
①口口口 |----|
口②口口 |②---|
口口口口 |----|
22
口口口口 |①---|
口口①口 |----|
口口口② |②---|
口口口口 |----|
23
口口口口 |①---|
口口①口 |----|
口②口口 |②---|
口口口口 |----|
24
口口口口 |①---|
口①①口 |----|
口口口口 |----|
口口口口 |----|
25
口口口口 |①---|
①②口口 |----|
口口口口 |②---|
口口口口 |----|
26
口口口口 |①---|
口口①② |----|
口口口口 |②---|
口口口口 |----|
27
口口口口 |①---|
口口口口 |----|
口口②① |②---|
口口口口 |----|
28
口口口口 |①---|
口口口口 |----|
②①口口 |②---|
口口口口 |----|
29
口口口口 |①---|
①②口口 |----|
口口口口 |②---|
口口口口 |----|
30
口口口口 |①---|
口口口② |----|
口口①口 |②---|
口口口口 |----|
31
口口口口 |①---|
口口①口 |----|
口②口口 |②---|
口口口口 |----|
32
口口口口 |①---|
口①①口 |----|
口口口口 |----|
口口口口 |----|
33
口口口口 |①---|
口②口口 |----|
口①口口 |②---|
口口口口 |----|
34
①①口口 |①---|
口口口口 |----|
口口口口 |----|
口口口口 |----|
35
口口口口 |①---|
口口②口 |----|
口口①口 |②---|
口口口口 |----|
36
口口①① |①---|
口口口口 |----|
口口口口 |----|
口口口口 |----|
37
口①口口 |①---|
口②口口 |----|
口口口口 |②---|
口口口口 |----|
38
口口口口 |①---|
口口口口 |----|
口①口口 |②---|
口②口口 |----|
39
口口口口 |----|
口口口口 |----|
口口口口 |①---|
口口①口 |----|
40
口口口口 |①---|
口口②口 |----|
口口①口 |②---|
口口口口 |----|
41
口口①口 |①---|
口口口口 |----|
口口口口 |----|
口口口口 |----|
42
口口口口 |①---|
口①①口 |----|
口①①口 |----|
口口口口 |----|
43
口口口口 |①---|
口口口口 |----|
口②口口 |②---|
口①口口 |----|
44
②口②口 |①---|
①口①口 |----|
口口口口 |②---|
口口口口 |----|
45
口口口口 |①---|
口口口口 |----|
口口②口 |②---|
口口①口 |----|
46
口口口口 |①---|
口①口① |----|
口口口口 |----|
口口口口 |----|
47
口口口口 |①---|
①②口口 |----|
口口口口 |②---|
口口口口 |----|
48
口口口口 |①---|
口口②① |----|
口口口口 |②---|
口口口口 |----|
49
口口口口 |①---|
口口口口 |----|
①②口口 |②---|
口口口口 |----|
50
口口口口 |①---|
②①①② |----|
口口口口 |②---|
口口口口 |----|
51
口口口口 |①---|
口口②口 |----|
口口①口 |②---|
口口口口 |----|
52
口口口口 |①---|
②口口② |----|
①口口① |②---|
口口口口 |----|
53
口口口口 |①---|
口②口口 |----|
口①口口 |②---|
口口口口 |----|
54
口口口口 |①---|
①口口① |----|
口口口口 |----|
口口口口 |----|
55
口口口口 |①---|
口①①口 |----|
口口②口 |②---|
口口口口 |----|
56
口口口口 |①---|
口①①口 |----|
口②口口 |②---|
口口口口 |----|
57
口口口口 |①---|
①口口口 |----|
②口口口 |②---|
口口口口 |----|
58
口口口口 |①---|
口②口口 |----|
口①口口 |②---|
口口口口 |----|
59
口口口口 |①---|
①口①口 |----|
口口口口 |----|
口口口口 |----|
60
口口口口 |①---|
口口口口 |----|
口①口口 |----|
口口口口 |----|
61
口口口口 |①---|
口②②口 |----|
口①①口 |②---|
口口口口 |----|
62
口口口口 |①---|
①口口① |----|
口口②口 |②---|
口口口口 |----|
63
口口口口 |①---|
①口口① |----|
①口口① |----|
口口口口 |----|

不確定度: 0

最終更新:2014年08月01日 02:11