ETERNAL BLAZE


ADVANCED

Level: 6
BPM: 105-155
Notes: 343

BPM: 105
1
口口口口 |----|
口口口口 |----|
口口口口 |----|
口口口口 |----|
2
口⑤③口 |①---|
口②④口 |②---|
口口①口 |③---|
口口口口 |④-⑤-|
3
②口④口 |①-②-|
口口口口 |③-④-|
①口③口
口口口口

口口口口
⑤口口⑤
口口⑥口 |⑤---|
口口口口 |--⑥-|
4
口口③口 |①---|
口①口② |②-③-|
口口口口 |----|
口口口口 |----|
5
口口①① |----|
口口口口 |①---|
口口口口
口口口口

口③③口
口口口口
②②口口 |②---|
口口口口 |③---|
6
口口口口 |①---|
口①①口 |----|
口口口口 |----|
口口口口 |----|

BPM: 155
7
口口口口 |①---|
口口口口 |----|
口口口口 |----|
口①①口 |----|
8
口口口口 |----|
口口口口 |----|
口②口口 |----|
口口①口 |①-②-|
9
口口口口 |①---|
②口③口 |②---|
口口口① |--③-|
口口口口 |----|
10
口口口口 |①---|
口①③② |--②-|
口④口口 |--③-|
口口⑤口 |④-⑤-|
11
②口④口 |--①-|
口⑤口口 |②---|
①口③口 |③-④-|
口口口口 |--⑤-|
12
口口⑥② |①---|
口⑤口口 |②-③-|
④④口③ |④---|
口①口口 |⑤-⑥-|
13
③①口口 |①---|
口口口口 |②---|
口口④④ |③---|
口口②② |④---|
14
口口口口 |①---|
口①口口 |②---|
③口④④ |③---|
口口②② |④---|
15
口口②② |①---|
口口④④ |②---|
③口口口 |③---|
口①口口 |④---|
16
③口②② |①---|
口①④④ |②---|
口口口口 |③---|
⑤口口口 |④-⑤-|
17
口口口口 |①--②|
口②口⑤ |--③-|
④口③口 |④---|
口口①口 |⑤---|
18
口口①⑤ |①--②|
②口口口 |--③-|
口口④口 |④---|
口口口③ |--⑤-|
19
口①口口 |①--②|
⑤口②口 |--③-|
口③口④ |④---|
口口口口 |⑤---|
20
口①口口 |①--②|
口口口② |--③-|
口④口口 |④---|
③口口口 |----|
21
①①口口 |①-②-|
口口②口 |③-④⑤|
口⑤口③ |----|
口口④口 |----|
22
口口①① |①-②-|
⑥②口口 |③-④⑤|
③口⑤口 |----|
口④口口 |--⑥-|
23
口口③口 |①---|
⑤②①④ |②---|
口口口口 |③--④|
①③口口 |--⑤-|
24
口口口③ |①-②-|
口口②口 |③---|
口①口口 |----|
口④①口 |--④-|
25
口口口口 |①--②|
口②口⑤ |--③-|
④口③口 |④---|
口口口① |⑤---|
26
口口①⑤ |①--②|
②口口口 |--③-|
口口④口 |④---|
口口口③ |--⑤-|
27
口①口口 |①--②|
⑥口②口 |--③-|
口③口④ |④-⑤-|
口口⑤口 |⑥---|
28
口①口口 |①--②|
口口口② |--③-|
口④口口 |④---|
③⑤口口 |--⑤-|
29
①①③③ |①---|
口口口口 |②---|
②口口口 |③---|
口口④口 |④---|
30
口口口口 |①-②-|
口②口④ |③-④-|
①口③口
口口口口

口口口口
⑤⑥口口
口口口口 |----|
口口口口 |--⑤⑥|
31
口口⑤口 |①---|
口口①口 |②-③-|
④口③② |--④-|
口口口口 |--⑤-|
32
口口口口 |--①-|
口口口口 |②---|
口①口口 |----|
口口②口 |----|
33
口②②② |①---|
口口⑥口 |②---|
口⑤④③ |③-④-|
①①口口 |⑤-⑥-|
34
口口口口 |--①-|
口口口口 |②---|
口口口② |----|
口口①口 |----|
35
②②②口 |①---|
口⑥口口 |②---|
③④⑤口 |③-④-|
口口①① |⑤-⑥-|
36
口口口口 |--①-|
口口口口 |②---|
②口口④ |----|
口①③口 |--③④|
37
口口③口 |①---|
口口①口 |②-③-|
⑤口②口 |----|
口④口口 |--④⑤|
38
口③口口 |①---|
口①口口 |②-③-|
口②口口 |----|
口口口口 |----|
39
⑤口口口 |----|
口③口口 |--①-|
④口②口 |②-③-|
口①口口 |④-⑤-|
40
口⑤口① |①-②-|
口④口口 |----|
口口口② |③--④|
口口③口 |--⑤-|
41
口口③口 |①--②|
口口②口 |--③-|
①口口①
口口口口

口口口口
⑥⑥⑥⑥
口⑤⑤口 |--④-|
口④④口 |⑤-⑥-|
42
口口口口 |----|
口口口口 |----|
口口口口 |----|
口口口口 |----|
43
口口⑤③ |①---|
①④②口 |②---|
口口③口 |③---|
口①口口 |④-⑤-|
44
①③口口 |①-②-|
④口②⑤ |③-④-|
口①口口 |⑤---|
口口⑤口 |----|
45
③口口口 |①---|
口口②④ |②---|
⑤口口口 |③--④|
口①口口 |--⑤-|
46
③口③口 |①-②-|
口②口口 |③---|
口①口①
口口口口

口口口口
口口口口
口④口口 |----|
口口口口 |--④-|
47
口①口口 |①--②|
④口口口 |--③-|
③口⑤口 |④---|
②口口口 |--⑤-|
48
口⑤①口 |①--②|
⑥口口④ |--③-|
口口口③ |④---|
口口口② |--⑤⑥|
49
口口①口 |①--②|
口口口② |--③-|
口③口口
口口口口

口口⑥口
口⑥④⑥
口口口口 |④-⑤-|
⑤口口口 |--⑥-|
50
口口口口 |----|
口口口口 |--①-|
①口①口 |----|
口①口口 |----|
51
③⑤口口 |①---|
口②④① |②---|
口③口口 |③---|
口口①口 |④-⑤-|
52
口口③① |①-②-|
⑤②口④ |③-④-|
口口①口 |⑤---|
口⑤口口 |----|
53
口口口③ |①---|
④②口口 |②---|
口口口⑤ |③--④|
口口①口 |--⑤-|
54
口③口③ |①-②-|
口口②口 |③---|
①口①口
口口口口

口口口口
口口口口
⑤口口口 |----|
④口口口 |④-⑤-|
55
口②①① |①---|
①③口口 |②-③-|
⑤口③③ |----|
口④口口 |④-⑤-|
56
口①口口 |①-②-|
②口①① |--③-|
口③口口 |----|
口口③③ |----|
57
口口③口 |①--②|
口⑥②口 |--③-|
①⑤口④ |④--⑤|
口口口口 |--⑥-|
58
⑦①口⑥ |①---|
②口⑤② |②-③-|
口④口⑦ |④-⑤-|
③口口口 |⑥-⑦-|
59
①口口口 |----|
口②口口 |----|
口口③口 |--①-|
口口口口 |②-③-|
60
口口口口 |①---|
口口口口 |----|
口口口口 |----|
口口口① |----|
61
①③③口 |①--②|
①口口口 |--③-|
口口口②
口口口②

⑤口口⑤
口口口口
口口口口 |④--⑤|
⑥④④⑥ |--⑥-|
62
口口口口 |①---|
口①①口 |--②-|
口①①口
口②口口

口口口口
口④口口
口口口口 |③---|
口口③口 |④---|
63
①①①① |①---|
口口口口 |----|
口口口口 |----|
口②②口 |--②-|

不確定度: 0

最終更新:2014年08月01日 02:10