LANA - Answer I -
TOMOSUKE×Jazzin'park

BASIC

Level: 2
BPM: 171
Notes: 205

1
口口口口 |----|
口口口口 |----|
口口口口 |----|
口口口口 |----|
2
口口口口 |①---|
①口②口 |----|
口口口口 |②---|
口口口口 |----|
3
口②口口 |①---|
口口口口 |----|
口①口口 |②---|
口口口口 |----|
4
口口口口 |①---|
口口口口 |----|
口①口② |②---|
口口口口 |----|
5
口口口口 |①---|
口口②口 |----|
口口口口 |②---|
口口①口 |----|
6
口口口口 |①---|
②口口② |----|
口①①口 |----|
口口口口 |②---|
7
口②②口 |----|
口①①口 |----|
口口口口 |①---|
口口口口 |②---|
8
①口口① |①---|
口口口口 |----|
口口口口 |----|
口口口口 |----|
9
口口口口 |----|
口口口口 |----|
口口口口 |----|
口口口口 |----|
10
口口口口 |①---|
口口口口 |----|
①口口① |----|
口口口口 |----|
11
口口口口 |①---|
口口口口 |----|
口口口② |----|
口①①口 |②---|
12
口口口口 |①---|
口口②② |----|
①①口口 |②---|
口口口口 |----|
13
①口口口 |----|
口口口口 |----|
口口口口 |----|
口口口口 |①---|
14
口口口口 |①---|
口口①① |----|
②②口口 |②---|
口口③③ |③---|
15
口口口口 |----|
口口口口 |----|
①口口口 |----|
口口口口 |①---|
16
口口口口 |①---|
②②口口 |----|
口口①① |②---|
口口口口 |----|
17
口口口① |----|
口口口口 |----|
口口口口 |----|
口口口口 |①---|
18
口口口口 |①---|
①①口口 |----|
口口②② |②---|
口口口口 |----|
19
口口口口 |①---|
口口口口 |----|
口口口口 |----|
①①口口 |----|
20
①②口口 |①---|
口口口口 |----|
口口口口 |②---|
口口口口 |----|
21
口口①口 |①---|
口口口口 |----|
口口口口 |----|
口口口口 |----|
22
口口口口 |①---|
口口口口 |----|
口口②① |②---|
口口口口 |----|
23
口口口口 |①---|
口口口口 |----|
口①口口 |----|
口口口口 |----|
24
口口口口 |①---|
①①口口 |----|
口口口口 |----|
口口口口 |----|
25
口口口口 |①---|
口口①① |----|
口口口口 |----|
口口口口 |----|
26
口口口口 |①---|
口口口口 |----|
①①口口 |----|
口口口口 |----|
27
口口口口 |①---|
口口口口 |----|
口口①① |----|
口口口口 |----|
28
①口口① |①---|
口口口口 |----|
口口口口 |----|
口口口口 |----|
29
口口口口 |①---|
口①①口 |----|
口口口口 |----|
口口口口 |----|
30
①口口① |①---|
口口口口 |----|
口口口口 |----|
口口口口 |----|
31
口口口口 |①---|
口口口口 |----|
口①①口 |----|
口口口口 |----|
32
①口口① |①---|
口口口口 |----|
口口口口 |----|
口口口口 |----|
33
口口口口 |①---|
口口口口 |----|
口口口口 |----|
口①①口 |----|
34
①口口① |①---|
口口口口 |----|
口口口口 |----|
口口口口 |----|
35
口口口口 |①---|
口口口口 |----|
口①①口 |----|
口口口口 |----|
36
①口口① |①---|
口口口口 |----|
口口口口 |----|
口口口口 |----|
37
口口口口 |①---|
口①①口 |----|
口口口口 |----|
口口口口 |----|
38
①口口① |①---|
口口口口 |----|
口口口口 |----|
口口口口 |----|
39
口口口口 |①---|
口口口口 |----|
口口口口 |----|
①口口① |----|
40
口口口口 |①---|
口口口口 |----|
①①口口 |----|
口口口口 |----|
41
口口口口 |①---|
口口①① |----|
口口口口 |----|
口口口口 |----|
42
口口口口 |①---|
口①①口 |----|
口口口口 |----|
口口口口 |----|
43
①口口① |①---|
口口口口 |----|
口口口口 |----|
口口口口 |----|
44
口口口口 |①---|
口口口口 |----|
②②口口 |②---|
口口①① |----|
45
②口口② |①---|
①口口① |----|
口口口口 |②---|
口口口口 |----|
46
口口口口 |①---|
口口口口 |----|
口口②② |②---|
①①口口 |----|
47
②口口② |①---|
①口口① |----|
口口口口 |②---|
口口口口 |----|
48
口口口口 |①---|
②②①① |----|
口口口口 |②---|
口口口口 |----|
49
口口口口 |①---|
口口口口 |----|
①口口① |②---|
②口口② |----|
50
口①①口 |①---|
口口口口 |----|
口②②口 |②---|
口口口口 |----|
51
口口口口 |①---|
①②②① |----|
口口口口 |②---|
口口口口 |----|
52
①②口口 |①---|
口口口口 |----|
①②口口 |②---|
口口口口 |----|
53
口口口① |①---|
口口口口 |----|
口口口① |----|
口口口口 |----|
54
口口口口 |①---|
口口②① |----|
口口口口 |②---|
口口②① |----|
55
口口口口 |①---|
①口口口 |----|
口口口口 |----|
①口口口 |----|
56
口口口口 |①---|
口口口口 |----|
①①口口 |----|
①①口口 |----|
57
口口①① |①---|
口口①① |----|
口口口口 |----|
口口口口 |----|
58
①①①① |①---|
口口口口 |----|
口口口口 |----|
口口口口 |----|
59
口口口口 |----|
口口口口 |----|
口口口口 |----|
口口口口 |----|
60
口口口口 |①---|
口口②口 |----|
①口②口 |②---|
①口口口 |----|
61
口①口口 |①---|
口①口口 |----|
口口口口 |----|
口口口口 |----|
62
口口口口 |①---|
口②口口 |----|
口②口① |②---|
口口口① |----|
63
口口①口 |①---|
口口①口 |----|
口口口口 |----|
口口口口 |----|
64
口口②口 |①---|
口口②口 |----|
①口口口 |②---|
①口口口 |----|
65
口口口口 |----|
口①口口 |①---|
口口②口 |②---|
口③口口 |③---|
66
口口口口 |①---|
②口口② |----|
①口口① |②---|
口口口口 |----|
67
口①①口 |①---|
口口口口 |----|
口口口口 |----|
口口口口 |----|
68
①①口② |①---|
口口口口 |②---|
④口③③ |③---|
口口口口 |④---|
69
②口①① |①---|
口口口口 |②---|
③③口④ |③---|
口口口口 |④---|
70
口口口口 |①---|
①②③④ |②---|
口口口口 |③---|
口口口口 |④---|
71
口口口口 |①---|
口口口口 |②---|
口口口口 |③---|
①②③④ |④---|
72
①②③④ |①---|
口口口口 |②---|
口口口口 |③---|
口口口口 |④---|
73
口口口口 |①---|
口口口口 |②---|
①②③④ |③---|
口口口口 |④---|
74
口①①口 |①---|
口①①口 |----|
口口口口 |----|
口口口口 |----|

不確定度: 0

最終更新:2014年08月01日 22:48