LANA - Answer I -
TOMOSUKE×Jazzin'park

ADVANCED

Level: 6
BPM: 171
Notes: 419

1
口口口口 |----|
口口口口 |----|
口口口口 |----|
口口口口 |----|
2
口口口口 |①---|
②④口⑤ |②-③-|
①③口口 |--④-|
②④口口 |⑤---|
3
④口③① |①-②-|
口口②⑤ |--③-|
口口③① |④---|
口口口口 |⑤---|
4
口口口口 |①---|
②④口⑤ |②-③-|
①③口口 |--④-|
②④口口 |⑤---|
5
口口③① |①-②-|
口口②口 |--③-|
口口③①
口口口口

口口口⑤
④口口口
口口口口 |④---|
口口口口 |⑤---|
6
③③口③ |①---|
口口口口 |--②-|
①①口① |----|
②口②② |③---|
7
口口口④ |--①-|
口口⑤口 |----|
①③①① |②-③-|
②口口口 |④-⑤-|
8
①③②口 |①-②-|
口⑤⑥④ |③-④-|
⑦口⑧口 |⑤-⑥-|
口口口口 |⑦-⑧-|
9
口口口口 |①-②-|
口⑤口口 |③-④-|
口①⑥口 |----|
口③④② |⑤-⑥-|
10
口①③② |①-②-|
④⑥⑤口 |③-④-|
口⑦口⑧ |⑤-⑥-|
口口口口 |⑦-⑧-|
11
口口口口 |①-②-|
口口口口 |③-④-|
⑤口①口 |----|
②④③口 |⑤---|
12
口①口口 |①---|
口口③② |②-③-|
口口口口 |----|
口口口口 |----|
13
口口口口 |----|
口口口口 |----|
口口口① |----|
口口口口 |①---|
14
口口①口 |①---|
③②口口 |②-③-|
口口⑤④ |--④-|
口口口口 |⑤---|
15
口口口口 |----|
口口口口 |----|
①口口口 |----|
口口口口 |①---|
16
口①口口 |①---|
口口③② |②-③-|
口口口口 |----|
口口口口 |----|
17
口口口口 |----|
口口口口 |----|
口口口① |----|
口口口口 |①---|
18
口口①口 |①---|
②口口口 |--②-|
④口④口 |--③-|
口③口口 |--④-|
19
口①口① |--①-|
口口口口 |----|
口口口口 |----|
口口口口 |----|
20
口⑤⑤口 |①---|
口②口口 |②---|
口口④口 |③-④-|
口③口① |--⑤-|
21
口口口口 |----|
口口口口 |----|
口口口口 |----|
口口口口 |----|
22
口口口口 |①---|
口口①口 |--②-|
口④口口 |--③-|
②口③口 |--④-|
23
口口口口 |--①-|
口口①口 |----|
口口口口 |----|
②口②口 |②---|
24
口口①① |①---|
口口口口 |--②-|
口②口口
口口口口

③口③口
口口口口
口口口口 |----|
口口口口 |③---|
25
口口口口 |①---|
口②口口 |--②-|
口口口口 |----|
口口①① |----|
26
口③③口 |①-②-|
②④④① |--③-|
⑤口口⑤ |--④-|
口口口口 |--⑤-|
27
口口口口 |--①-|
口口口口 |②---|
口口口口 |----|
口①②口 |----|
28
①⑤⑤① |①---|
②口口② |②---|
口③④口 |③-④-|
口口口口 |--⑤-|
29
口口口口 |--①-|
口①①口 |--②-|
②口口② |--③-|
口③③口 |----|
30
⑤①①⑤ |①---|
口②②口 |②---|
③口口④ |③-④-|
口口口口 |--⑤-|
31
口口口口 |--①-|
①⑤口① |--②-|
③②②④ |--③-|
口口口口 |④-⑤-|
32
①⑤⑤① |①---|
②口口② |②---|
口③④口 |③-④-|
口口口口 |--⑤-|
33
口口口口 |--①-|
口①①口 |--②-|
②口口② |--③-|
口③③口 |----|
34
⑤①①⑤ |①---|
口②②口 |②---|
③口口④ |③-④-|
口口口口 |--⑤-|
35
口口口口 |--①-|
①⑤口① |--②-|
③②②④ |--③-|
口口口口 |④-⑤-|
36
①⑤⑤① |①---|
②口口② |②---|
口③④口 |③-④-|
口口口口 |--⑤-|
37
口口口口 |--①-|
口①①口 |--②-|
②口口② |--③-|
口③③口 |----|
38
⑤①①⑤ |①---|
口②②口 |②---|
③口口④ |③-④-|
口口口口 |--⑤-|
39
口口口口 |--①-|
①④口① |--②-|
口②②口 |--③-|
③口口③ |④---|
40
口口①口 |①---|
④口口⑤ |②-③-|
口②口口 |----|
口口③口 |④-⑤-|
41
口口口口 |--①-|
口口口口 |----|
口①①口 |----|
口口口口 |----|
42
③①①③ |①---|
口口口口 |--②-|
②口口② |----|
口口口口 |--③-|
43
口口口口 |--①-|
③③口口 |②-③-|
口口②② |----|
①①口口 |----|
44
口①口① |①---|
③口③口 |②-③-|
口⑤口⑤ |④---|
口②④口 |⑤---|
45
④口口④ |①-②-|
②口口② |③---|
口口口口 |④---|
口①③口 |----|
46
⑤口⑤口 |①---|
口③口③ |②-③-|
①口①口 |④---|
口②④口 |⑤---|
47
④口口④ |①-②-|
②口口② |③---|
口口口口 |④---|
口①③口 |----|
48
口口口口 |①---|
③①③① |②-③-|
口⑤口⑤ |④---|
口②④口 |⑤---|
49
⑤口口⑤ |①-②-|
④口口④ |③---|
②口②口 |④---|
口①③口 |⑤---|
50
口①①口 |①---|
②口口② |--②-|
口③③口 |----|
口口口口 |③---|
51
①口②口 |----|
口③口口 |----|
口口口口 |①--②|
口口口口 |--③-|
52
④口口④ |①---|
③口口③ |--②-|
口口①① |--③-|
②②口口 |④---|
53
口①口② |----|
口口③口 |----|
口口口口 |①--②|
口口口口 |--③-|
54
③口口③ |①---|
④口口④ |--②-|
①①口口 |--③-|
口口②② |④---|
55
口口③① |----|
口口②口 |----|
口口③① |①--②|
口口口口 |--③-|
56
①③口口 |----|
口②口口 |----|
①③口口 |①--②|
口口口口 |--③-|
57
①口口① |----|
③口口③ |----|
②口口② |①--②|
口口口口 |--③-|
58
口口口口 |①---|
口口口口 |----|
口①①口 |----|
口口口口 |----|
59
口口口口 |①---|
①口②口 |②---|
口③口④ |③---|
口口口口 |④---|
60
口口口口 |①---|
口口口口 |②---|
④口③③ |③---|
①①口② |④---|
61
口口④③ |①---|
①①口② |②---|
口口口口 |③---|
口口口口 |④---|
62
口口口口 |①---|
口口口口 |②---|
④口③③ |③---|
①①口② |④---|
63
口口④③ |①---|
①①口② |②---|
口口口口 |③---|
口口口口 |④---|
64
口口口口 |①---|
③③口④ |②---|
口口口口 |③---|
①①口② |④---|
65
②②口① |①---|
③③②口 |②---|
④④口③ |③---|
口口④口 |④---|
66
口口①① |①---|
②②口口 |--②-|
口口③③ |----|
口口口口 |③---|
67
口口⑥① |①---|
口⑤③口 |②-③-|
④②口口 |--④-|
口口口口 |⑤-⑥-|
68
①⑤口口 |①---|
①⑤④口 |②-③-|
口②口③ |--④-|
口口口③ |⑤---|
69
④⑥⑤⑦ |①-②-|
口口口③ |--③-|
①口②口 |④-⑤-|
口口②口 |⑥-⑦-|
70
口口口口 |①-②-|
①②③口 |③-④-|
口⑥⑤④ |⑤-⑥-|
⑦⑧口口 |⑦-⑧-|
71
口④③② |①-②-|
口口口口 |③-④-|
口口口口
口口①口

口口口口
口口口口
口⑤口口 |----|
口口⑥口 |⑤-⑥-|
72
口口口口 |①-②-|
①②③口 |③-④-|
口⑥⑤④ |⑤-⑥-|
⑦⑧口口 |⑦-⑧-|
73
口④③② |①-②-|
口口口口 |③-④-|
口口口口
口口①口

口口口口
口口口口
口⑤口口 |----|
口口⑥口 |⑤-⑥-|
74
口口口口 |①---|
①口口① |----|
口口口口 |----|
口口口口 |----|

不確定度: 0

最終更新:2014年08月01日 22:48