V.I.P


EXTREME

Level: 8
BPM: 185
Notes: 372

1
口口口口 |----|
口口口口 |----|
口口口口 |----|
口口口口 |----|
2
⑦①④⑦ |--①-|
⑦③②⑦ |②-③-|
口⑤口口 |④-⑤-|
口口⑥口 |⑥-⑦-|
3
口口③口 |--①-|
口②口口 |----|
口②口口 |②-③-|
①口口口 |----|
4
口口口口 |①---|
口口口口 |----|
口③口① |----|
②口口① |②-③-|
5
口口口① |①---|
口①③① |②---|
口口③口 |③---|
口口②口 |----|
6
⑦⑧⑨口 |①-②-③-|
⑪⑥⑤④ |④-⑤-⑥-|
①口⑩口 |⑦-⑧-⑨-|
①②③口 |⑩-⑪-|
7
口口⑥③ |--①-|
口⑤②口 |②-③-|
④口口① |--④-|
口口口口 |⑤-⑥-|
8
口口④口 |--①-|
①口①① |--②-|
口③口口 |----|
②②口② |③-④-|
9
③⑥口口 |--①-|
口②⑤口 |②-③-|
①口口④ |--④-|
口口口口 |⑤-⑥-|
10
口口口口 |--①-|
①口口口 |--②-|
②口②口 |③---|
口③口口 |----|
11
①⑥口① |①-②-|
⑧②⑦口 |③-④-|
④口口⑤ |⑤-⑥-|
口口③口 |⑦-⑧-|
12
⑦⑦⑥③ |①-②-|
⑦⑦口③ |③-④-|
口④②口 |⑤---|
①①⑤口 |⑥-⑦-|
13
口口口口 |----|
口口口口 |----|
口口①① |----|
口口①① |---①|
14
口口口口 |----|
口口口口 |----|
口口口口 |----|
口口口口 |----|
15
口③口口 |--①-|
④⑤口口 |②---|
口口口② |③-④-|
⑤口①口 |--⑤-|
16
②口口口 |--①-|
③口口口 |--②-|
①②③口 |--③-|
口口①口 |----|
17
口口③口 |----|
口口口① |①---|
口②④口 |②-③-|
口口口口 |--④-|
18
①口⑤口 |①-②-|
口②口⑥ |③-④-|
口④口⑧ |⑤-⑥-|
③口⑦口 |⑦-⑧-|
19
口口④口 |----|
①口②口 |①---|
口③口口 |②-③-|
口口口口 |--④-|
20
口①口⑤ |①-②-|
②口⑥口 |③-④-|
④口⑧口 |⑤-⑥-|
口③口⑦ |⑦-⑧-|
21
口①口口 |①---|
口口口口 |--②-|
口口口口 |----|
口口②口 |----|
22
口①②口 |----|
口口口③ |①---|
③口口口 |②---|
口②①口 |③---|
23
口④③口 |①---|
①口③口 |----|
口②口① |--②-|
口口口口 |③-④-|
24
口口口口 |①---|
①口口口 |----|
①口口口 |----|
口口口口 |----|
25
口口③口 |----|
口口口① |①---|
口②④口 |②-③-|
口口口口 |--④-|
26
①口⑤口 |①-②-|
口②口⑥ |③-④-|
口④口⑧ |⑤-⑥-|
③口⑦口 |⑦-⑧-|
27
口口④口 |----|
①口②口 |①---|
口③口口 |②-③-|
口口口口 |--④-|
28
口①口⑤ |①-②-|
②口⑥口 |③-④-|
④口⑧口 |⑤-⑥-|
口③口⑦ |⑦-⑧-|
29
口①口口 |①---|
口口口口 |--②-|
口口口口 |----|
口口②口 |----|
30
②口③① |----|
口口口口 |①---|
口口口口 |②---|
①③口② |③---|
31
口①口口 |①---|
口口②④ |----|
口③口④ |--②-|
口③①口 |③-④-|
32
口口口口 |----|
口口口口 |----|
口口口口 |----|
口口口口 |----|
33
口②口口 |----|
口⑤③口 |①---|
①口口④ |②-③-|
口口口口 |④-⑤-|
34
口口②口 |--①-|
④口口口 |--②-|
口口③口 |--③-|
口①口口 |--④-|
35
口④口口 |----|
口口①③ |①-②-|
④②口口 |--③-|
口口③口 |--④-|
36
口口口口 |----|
口口口口 |----|
口口口口 |----|
口口口口 |----|
37
口①③① |----|
②③①③ |①---|
②口③口 |②---|
②口口③ |--③-|
38
口口口口 |----|
口口③口 |--①-|
口口口② |--②-|
口①口口 |--③-|
39
①口口口 |----|
口口口口 |----|
①口口口 |----|
口口口口 |--①-|
40
口①口③ |----|
口口②口 |①---|
口口口口 |②---|
口①②③ |③---|
41
口②口口 |----|
口⑤③口 |①---|
①口口④ |②-③-|
口口口口 |④-⑤-|
42
④④②④ |--①-|
口口口口 |--②-|
口口③口 |--③-|
口①口口 |--④-|
43
③口③③ |--①-|
口口口口 |②---|
①①口口 |----|
②②口口 |--③-|
44
口口口口 |--①-|
口口口口 |②---|
口口①① |----|
口口②② |----|
45
⑦①④⑦ |--①-|
⑦③②⑦ |②-③-|
口⑤口口 |④-⑤-|
口口⑥口 |⑥-⑦-|
46
口口③口 |--①-|
口②口④ |----|
口②口④ |②-③-|
①口口④ |--④-|
47
口②①口 |----|
口口口口 |----|
口口口口 |----|
口口口口 |①-②-|
48
口口口⑤ |①---|
①③②⑤ |②---|
口③口⑤ |③-④-|
口①④② |--⑤-|
49
口口⑤口 |----|
④口口口 |①---|
口口口口 |②-③-|
②③口① |④-⑤-|
50
口口⑤口 |----|
口④口口 |①-②-|
③口口① |--③-|
口口②口 |④-⑤-|
51
口口口口 |--①-|
口口③口 |----|
口口口口 |----|
口①口② |②-③-|
52
⑤口①口 |----|
⑤④口② |①-②-|
口④③口 |--③-|
口口口口 |④-⑤-|
53
⑥口③⑥ |-----------①------------|
⑥口②⑥ |--②-|
①④口口 |③-④-|
口口⑤口 |⑤-⑥-|
54
口口③口 |--①-|
口②口口 |----|
口②口口 |②-③-|
①口口口 |----|
55
口③②口 |①---|
口口口① |----|
口口口① |----|
口口口① |②-③-|
56
口口口口 |①---|
①③口口 |②---|
②③口② |③---|
口①口口 |----|
57
⑦⑧⑨口 |①-②-③-|
⑪⑥⑤④ |④-⑤-⑥-|
口口⑩口 |⑦-⑧-⑨-|
①②③口 |⑩-⑪-|
58
口口⑥③ |--①-|
口⑤②口 |②-③-|
④口口① |--④-|
口口口口 |⑤-⑥-|
59
口①④口 |--①-|
①口口① |--②-|
口③②口 |----|
②口口② |③-④-|
60
③⑥口口 |--①-|
口②⑤口 |②-③-|
①口口④ |--④-|
口口口口 |⑤-⑥-|
61
口口口口 |--①-|
①口口口 |--②-|
②口②口 |③---|
口③口② |----|
62
①⑥口① |①-②-|
⑧②⑦口 |③-④-|
④口口⑤ |⑤-⑥-|
口口③口 |⑦-⑧-|
63
⑦⑦⑦③ |①-②-|
口口⑥③ |③-④-|
口④②口 |⑤---|
①①⑤口 |⑥-⑦-|
64
口口口口 |--①-|
③④⑤口 |②---|
口口②① |③-④-|
口⑥⑥⑥ |⑤-⑥-|

不確定度: 0

最終更新:2014年08月01日 23:12