Go to the top
倖田來未

EXTREME

Level: 7
BPM: 158
Notes: 435

1
口口口口 |----|
口口口口 |----|
口口口口 |----|
口口口口 |----|
2
口口口口 |①-②-|
口⑥③口 |③---|
口②⑤口 |④-⑤-|
口④①口 |⑥---|
3
⑤④口⑤ |①-②-|
口口③口 |③-④-|
口②口口 |⑤---|
口口①口 |----|
4
④④②② |①---|
口口口口 |②-③-|
口⑥⑤口 |--④-|
③口口① |⑤-⑥-|
5
口口口口 |①---|
②口①② |②---|
口口口口 |----|
口口口口 |----|
6
④④②② |①---|
口口口口 |②-③-|
口⑥⑤口 |--④-|
③口口① |⑤-⑥-|
7
口口口口 |①---|
口②②口 |②---|
①口口口 |----|
口口口口 |----|
8
口④口口 |①---|
口③⑤口 |②-③-|
口⑥②口 |--④-|
口①①口 |⑤-⑥-|
9
口口口口 |①---|
口口口口 |②---|
②口口② |----|
口口①口 |----|
10
口口口口 |①---|
④⑤⑥口 |②-③-|
③口口② |--④-|
口①①口 |⑤-⑥-|
11
口②②口 |①---|
⑥⑤⑥① |②---|
口口④口 |③-④-|
口③口口 |⑤-⑥-|
12
④④②② |①---|
口口口口 |②-③-|
口⑥⑤口 |--④-|
③③①① |⑤-⑥-|
13
口口③口 |①---|
②④①② |②---|
口口⑤口 |③-④-|
口口口口 |⑤---|
14
④④②② |①---|
口口口口 |②-③-|
口⑥⑤口 |--④-|
③③①① |⑤-⑥-|
15
口口口口 |①---|
④②②③ |②---|
①口口口 |③---|
口口口口 |④---|
16
口④口口 |①---|
口③⑤口 |②-③-|
口⑥②口 |--④-|
口①①口 |⑤-⑥-|
17
口口③口 |①---|
口④口口 |②---|
②口⑤② |③-④-|
口口①口 |⑤---|
18
口口口口 |①---|
④⑤⑥口 |②-③-|
③口口② |--④-|
口①①口 |⑤-⑥-|
19
口②②口 |①---|
⑥⑤⑥① |②---|
口口④口 |③-④-|
口③口口 |⑤-⑥-|
20
口口口口 |①---|
口口口口 |②---|
口④⑤③ |③-④-|
②口口① |⑤---|
21
⑦②①⑦ |①-②-|
口④③口 |③-④-|
口⑥⑤口 |⑤-⑥-|
口口口口 |⑦---|
22
口口⑥口 |①---|
口口口口 |②---|
③⑤④口 |③-④-|
①口口② |⑤-⑥-|
23
⑥①口⑥ |①-②-|
⑤③②⑤ |③-④-|
口口④口 |⑤---|
口口口口 |⑥---|
24
口口口口 |①---|
口口口口 |②---|
口④⑤③ |③-④-|
②口口① |⑤---|
25
⑦②①⑦ |①-②-|
口④③口 |③-④-|
口⑥⑤口 |⑤-⑥-|
口口口口 |⑦---|
26
口口⑥口 |①---|
口口口口 |②---|
③⑤④口 |③-④-|
①口口② |⑤-⑥-|
27
⑥①口⑥ |①-②-|
⑤③②⑤ |③-④-|
口口④口 |⑤---|
口口口口 |⑥---|
28
⑤口④口 |①---|
⑤③口口 |②-③-|
口口②口 |④---|
口口①口 |⑤---|
29
⑦⑥⑤④ |--①-|
口口③口 |②-③-|
口口口② |④-⑤-|
口口①口 |⑥-⑦-|
30
⑤口④口 |①---|
⑤③口口 |②-③-|
口口②口 |④---|
口口①口 |⑤---|
31
⑦⑥⑤④ |--①-|
口口③口 |②-③-|
口口口② |④-⑤-|
口口①口 |⑥-⑦-|
32
⑤口④口 |①---|
⑤③口口 |②-③-|
口口②口 |④---|
口口①口 |⑤---|
33
口口⑤④ |--①-|
口⑥③口 |②-③-|
口口口② |④-⑤-|
口口①口 |⑥---|
34
口⑧⑦口 |①-②-|
口⑥⑤口 |③-④-|
口④③口 |⑤-⑥-|
口②①口 |⑦-⑧-|
35
②口口① |①-②-|
④⑤⑤③ |③-④-|
口口口口 |⑤---|
口口口口 |----|
36
口口口口 |①-②-|
口口口口 |③-④-|
⑧②①⑦ |⑤-⑥-|
⑥④③⑤ |⑦-⑧-|
37
口口口口 |①-②-|
口口口口 |③-④-|
⑧②①⑦ |⑤-⑥-|
⑥④③⑤ |⑦-⑧-|
38
口口口口 |①-②-|
口口口口 |③-④-|
⑧②①⑦ |⑤-⑥-|
⑥④③⑤ |⑦-⑧-|
39
口口口口 |①-②-|
口口口口 |③-④-|
⑧②①⑦ |⑤-⑥-|
⑥④③⑤ |⑦-⑧-|
40
口口口口 |①-②-|
口口口口 |③-④-|
⑧②①⑦ |⑤-⑥-|
⑥④③⑤ |⑦-⑧-|
41
口口口口 |①-②-|
口口口口 |③-④-|
⑧②①⑦ |⑤-⑥-|
⑥④③⑤ |⑦-⑧-|
42
口①①口 |①---|
口①①口 |----|
口口口口 |----|
口口口口 |----|
43
口口口口 |----|
口口口口 |----|
口口口口 |----|
口口口口 |----|
44
④④②② |①---|
口口口口 |②-③-|
口⑥⑤口 |--④-|
③③①① |⑤-⑥-|
45
口口③口 |①---|
②④①② |②---|
口口⑤口 |③-④-|
口口口口 |⑤---|
46
④④②② |①---|
口口口口 |②-③-|
口⑥⑤口 |--④-|
③③①① |⑤-⑥-|
47
口口口口 |①---|
④②②③ |②---|
①口口口 |③---|
口口口口 |④---|
48
口④口口 |①---|
口③⑤口 |②-③-|
口⑥②口 |--④-|
口①①口 |⑤-⑥-|
49
口口③口 |①---|
口④口口 |②---|
②口⑤② |③-④-|
口口①口 |⑤---|
50
口口口口 |①---|
④⑤⑥口 |②-③-|
③口口② |--④-|
口①①口 |⑤-⑥-|
51
口②②口 |①---|
⑥⑤⑥① |②---|
口口④口 |③-④-|
口③口口 |⑤-⑥-|
52
④④②② |①---|
口口口口 |②-③-|
口⑥⑤口 |--④-|
③③①① |⑤-⑥-|
53
口口③口 |①---|
②④①② |②---|
口口⑤口 |③-④-|
口口口口 |⑤---|
54
④④②② |①---|
口口口口 |②-③-|
口⑥⑤口 |--④-|
③③①① |⑤-⑥-|
55
口口口口 |①---|
④②②③ |②---|
①口口口 |③---|
口口口口 |④---|
56
口④口口 |①---|
口③⑤口 |②-③-|
口⑥②口 |--④-|
口①①口 |⑤-⑥-|
57
口口③口 |①---|
口④口口 |②---|
②口⑤② |③-④-|
口口①口 |⑤---|
58
口口口口 |①---|
④⑤⑥口 |②-③-|
③口口② |--④-|
口①①口 |⑤-⑥-|
59
口②②口 |①---|
⑥⑤⑥① |②---|
口口④口 |③-④-|
口③口口 |⑤-⑥-|
60
④口口口 |①---|
口口口③ |②---|
②口口口 |③---|
口口口① |④---|
61
口口⑤① |①---|
②④口口 |②---|
口口③口 |③-④-|
口口口口 |⑤---|
62
口口口④ |①---|
③口口口 |②---|
口口口② |③---|
①口口口 |④---|
63
口①⑦口 |①-②-|
口⑥②口 |③-④-|
口③⑤口 |⑤-⑥-|
口口④口 |⑦---|
64
④口口口 |①---|
口口口③ |②---|
②口口口 |③---|
口口口① |④---|
65
口口⑤① |①---|
②④口口 |②---|
口口③口 |③-④-|
口口口口 |⑤---|
66
口口口④ |①---|
③口口口 |②---|
口口口② |③---|
①口口口 |④---|
67
口①口口 |①-②-|
口口②口 |③-④-|
口③口口
口口④口

口⑦⑦口
口⑥口口
口口⑤口 |⑤-⑥-|
口口口口 |⑦---|

不確定度: 0

最終更新:2014年08月01日 22:37