ハートに火をつけて
9mm Parabellum Bullet

EXTREME

Level: 9
BPM: 205
Notes: 701

1
口口口口 |----|
口口口口 |----|
口口口口 |----|
口口口口 |----|
2
②④口口 |①---|
⑤口①口 |②-③-|
口①口⑥ |④-⑤-|
口口⑦③ |⑥-⑦-|
3
口口⑤② |①---|
口①口④ |②-③-|
⑦口①口 |④-⑤-|
③⑥口口 |⑥-⑦-|
4
②④口口 |①---|
⑤口①口 |②-③-|
口①口⑥ |④-⑤-|
口口⑦③ |⑥-⑦-|
5
口⑤⑤口 |①-②-|
口口口④ |③-④-|
②口③口 |⑤---|
口①口口 |----|
6
口口④② |①---|
③①①⑥ |②-③-|
口口口② |④-⑤-|
⑤⑦口⑥ |⑥-⑦-|
7
②口⑦口 |①---|
⑥④口口 |②-③-|
②①①⑤ |④-⑤-|
⑥口③口 |⑥-⑦-|
8
口②口⑤ |①---|
口⑥⑦③ |②-③-|
④①①口 |④-⑤-|
口口口口 |⑥-⑦-|
9
②④⑤⑦ |①-②-|
④口口⑤ |③-④-|
⑥口口③ |⑤-⑥-|
⑧⑥③① |⑦-⑧-|
10
口口口口 |①---|
口①①口 |----|
口①①口 |----|
口口口口 |----|
11
口口口口 |①---|
①口口② |②---|
①口口②
口①②口

BPM: 202

口④④口
口口口口
口③③口 |③---|
口口口口 |④---|

BPM: 204
12
①口口⑥ |①-②-|
④口⑤⑦ |③-④-|
口口⑤⑧ |⑤---|
③口口② |⑥⑦⑧---|
13
口①⑤口 |①-②-|
口④⑤口 |③-④-|
③口口口 |⑤---|
口口②口 |----|
14
⑥口口① |①-②-|
⑦⑤口④ |③-④-|
⑧⑤口口 |⑤---|
②口口③ |⑥⑦⑧---|
15
口口①口 |①-②-|
口⑤③口 |③-④-|
口⑤口④ |⑤---|
口②口口 |----|

BPM: 206
16
①口口⑥ |①-②-|
④口⑤⑦ |③-④-|
口口⑤⑧ |⑤---|
③口口② |⑥⑦⑧---|
17
⑥①⑤⑥ |①-②-|
口④⑤口 |③-④-|
③口口口 |⑤---|
口口②口 |⑥---|
18
口②⑤口 |①-②-|
口口⑤① |③-④-|
口⑥③③ |⑤---|
⑥④口① |⑥---|
19
口⑥⑥口 |①-②-|
口②口③ |③-④-|
⑤口③④ |⑤---|
口⑤①① |⑥---|

BPM: 205
20
①口口⑥ |①-②-|
④口⑤⑦ |③-④-|
口口⑤⑧ |⑤---|
③口②口 |⑥⑦⑧---|
21
口①⑤口 |①-②-|
口④⑤口 |③-④-|
③口口口 |⑤---|
口口②口 |----|
22
⑥口口① |①-②-|
⑦⑤口④ |③-④-|
⑧⑤口口 |⑤---|
口②口③ |⑥⑦⑧---|
23
口口①口 |①-②-|
口⑤③⑧ |③-④-|
⑦⑤口④ |⑤-⑥-|
口②口⑥ |⑦-⑧-|
24
①口口⑥ |①-②-|
④口⑤⑦ |③-④-|
口口⑤⑧ |⑤---|
③口②口 |⑥⑦⑧---|
25
⑥①⑤⑥ |①-②-|
口④⑤口 |③-④-|
③口口口 |⑤---|
口口②口 |⑥---|
26
口②⑤口 |①-②-|
口口⑤① |③-④-|
口⑥③③ |⑤---|
⑥④口① |⑥---|
27
口口口口 |①-②-|
口②口③ |③-④-|
⑤⑦③④ |⑤---|
⑥⑤①① |⑥-⑦-|
28
口口口口 |①---|
口④①口 |②-③-|
口口③口 |④---|
口口口② |----|
29
口①①口 |①---|
口⑥②口 |②-③-|
⑤③口口 |④---|
口口④口 |⑤-⑥-|
30
口④①口 |①---|
口口③口 |②-③-|
口口口② |④---|
口口口口 |----|
31
①口口① |①---|
口②口口 |②-③-|
口口③口 |④---|
口④口口 |----|
32
④④口口 |①---|
口口③口 |--②-|
口口②口 |③---|
①口口① |④---|
33
口口口口 |①---|
口口口口 |②---|
②①③④ |③---|
①②④③ |④---|
34
③口口③ |①---|
②①①② |--②-|
口口口口 |③---|
口口口口 |----|
35
②口③口 |----|
口口口口 |----|
口①①口 |①---|
口口口口 |②-③-|
36
口②口⑥ |①---|
口④口口 |②-③-|
①④口⑤ |④-⑤-|
①口③口 |--⑥-|
37
⑥口④口 |①-②-|
①⑤⑦口 |③-④-|
①⑤②口 |⑤---|
口③口口 |⑥-⑦-|
38
口②口⑥ |①---|
口④口口 |②-③-|
①④口⑤ |④-⑤-|
①口③口 |--⑥-|
39
①⑤④⑦ |①-②-|
①⑤②口 |③-④-|
口口口⑥ |⑤-⑥-|
口③口口 |--⑦-|
40
①④口⑤ |①---|
①④口口 |--②-|
口口②口 |③---|
③③口口 |④-⑤-|
41
⑦口③⑧ |①-②-|
⑦口③⑥ |③-④-|
①①口④ |⑤-⑥-|
⑤⑤口② |⑦-⑧-|
42
口③⑥口 |①-②-|
口②⑤口 |③---|
口①④口 |④-⑤-|
口口口口 |⑥---|
43
④口口④ |①-②-|
③⑤⑤③ |③---|
口②口口 |④---|
口口①口 |⑤---|
44
口③①口 |①---|
④口口② |②-③-|
③口口① |--④-|
口⑤⑤口 |--⑤-|
45
④口口① |--①-|
口口口口 |--②-|
④②③① |--③-|
②口口③ |--④-|
46
口①①口 |①---|
⑤口④口 |--②-|
口口口口 |--③-|
③②②口 |④-⑤-|
47
④③口口 |①-②-|
口口口② |③-④-|
口口⑤① |⑤-⑥-|
⑦⑦⑥口 |⑦---|
48
口③①口 |①---|
④口口② |②-③-|
③口口① |--④-|
口⑤⑤口 |--⑤-|
49
④口口① |--①-|
口口口口 |--②-|
④②③① |--③-|
②口口③ |--④-|
50
口③③⑥ |①---|
口①①② |②-③-|
口⑤口口 |--④-|
口口④口 |⑤-⑥-|
51
口⑦⑦口 |①-②-|
②口④③ |③-④-|
①口⑥口 |⑤-⑥-|
口⑤口口 |⑦---|
52
口口口① |①-②-|
⑧④口口 |③-④-|
③口口② |⑤-⑥-|
⑦口⑥⑤ |⑦-⑧-|
53
口③⑥口 |①-②-|
口口①⑤ |③-④-|
④口②口 |⑤-⑥-|
⑧⑦口口 |⑦-⑧-|
54
④口口口 |①-②-|
⑧⑦②⑥ |③-④-|
口③⑤① |⑤-⑥-|
口口口口 |⑦-⑧-|
55
口口②⑥ |①-②-|
口⑧⑤口 |③-④-|
③⑦口① |⑤-⑥-|
口④口口 |⑦-⑧-|
56
④④⑤⑤ |①---|
口口口① |②---|
③口①② |③-④-|
口口②口 |--⑤-|
57
口口口口 |----|
①口口④ |①---|
②④①③ |②--③|
口③②口 |--④-|
58
口口口口 |----|
口口口口 |----|
口口口口 |----|
口口口口 |----|
59
②口口① |----|
③口③口 |①---|
口口口口 |②---|
口口口口 |--③-|
60
口口口口 |①---|
口①口口 |②-③-|
③①④② |--④-|
①⑤①口 |--⑤-|
61
①口口② |----|
口③口③ |①---|
口口口口 |②---|
口口口口 |--③-|
62
口口口口 |①---|
口口①口 |②-③-|
②④①③ |--④-|
口①⑤① |--⑤-|
63
口口口口 |----|
口口口口 |----|
口口口口 |----|
口口口口 |----|
64
①④④① |①---|
口口口口 |②-③-|
②口②口 |--④-|
③⑤③⑤ |--⑤-|
65
③口口③ |--①-|
①口①口 |--②-|
口②口② |--③-|
④口口④ |--④-|
66
口口口口 |----|
口口口口 |----|
口口口口 |----|
口口口口 |----|
67
①⑤②⑥ |①-②-|
口口口口 |③-④-|
口口口口 |⑤-⑥-|
⑦③⑧④ |⑦-⑧-|
68
④口②④ |①---|
口①①② |②-③-|
③口口口 |--④-|
⑤③口⑤ |--⑤-|
69
口⑤口口 |①-②-|
口③②④ |③-④-|
⑧⑥⑦口 |⑤-⑥-|
口口①口 |⑦-⑧-|
70
①④④① |①---|
②②口口 |②-③-|
⑤口口⑤ |--④-|
口口③③ |--⑤-|
71
口口口② |①-②-|
口⑤⑦④ |③-④-|
⑧③①口 |⑤-⑥-|
⑥口口口 |⑦-⑧-|
72
口②③④ |①---|
⑥口口⑥ |②-③-|
口②③④ |④---|
⑤①①⑤ |⑤-⑥-|
73
③③口口 |①-②-|
口②②口 |--③-|
口口口口 |----|
口①①口 |----|
74
③②①口 |----|
口⑤口⑤ |①-②-|
③②①口 |③---|
④口④口 |④-⑤-|
75
④口③③ |①-②-|
②口②⑤ |--③-|
口④口口 |----|
口①⑤① |④-⑤-|
76
口口⑤④ |①---|
⑦口⑥口 |②-③-|
①口②口 |④-⑤-|
①③口口 |⑥-⑦-|
77
④⑤口口 |①---|
口⑥口⑦ |②-③-|
口②口① |④-⑤-|
口口③① |⑥-⑦-|
78
口口口② |①---|
④口口口 |②-③-|
①⑤③⑦ |④-⑤-|
①口⑥口 |⑥-⑦-|
79
⑥口口⑧ |①-②-|
⑤②④③ |③-④-|
口口⑦口 |⑤-⑥-|
①口口口 |⑦-⑧-|
80
口①①口 |①---|
口口口口 |----|
口口口口 |----|
口口口口 |----|
81
口④④口 |①---|
①口口② |②---|
①③③② |③---|
口①②口 |④---|
82
①口口⑥ |①-②-|
④口⑤⑦ |③-④-|
口口⑤⑧ |⑤---|
③口口② |⑥⑦⑧---|
83
口①⑤口 |①-②-|
口④⑤口 |③-④-|
③口口口 |⑤---|
口口②口 |----|
84
⑥口口① |①-②-|
⑦⑤口④ |③-④-|
⑧⑤口口 |⑤---|
②口口③ |⑥⑦⑧---|
85
口口①口 |①-②-|
口⑤③口 |③-④-|
口⑤口④ |⑤---|
口②口口 |----|
86
①口口⑥ |①-②-|
④口⑤⑦ |③-④-|
口口⑤⑧ |⑤---|
③口②口 |⑥⑦⑧---|
87
⑥①⑤⑥ |①-②-|
口④⑤口 |③-④-|
③口口口 |⑤---|
口口②口 |⑥---|
88
口②⑤口 |①-②-|
口口⑤① |③-④-|
口⑥③③ |⑤---|
⑥④口① |⑥---|
89
口⑥⑥口 |①-②-|
口②口③ |③-④-|
⑤口③④ |⑤---|
口⑤①① |⑥---|
90
②口口① |①-②-|
⑥④①⑤ |③-④-|
⑥口口⑤ |⑤---|
口口③③ |⑥---|
91
⑦口口⑧ |①②③④|
口口①口 |⑤---|
口②③口 |⑥-⑦-|
⑨④⑤⑥ |⑧-⑨-|
92
口口口口 |①---|
口①①口 |----|
口口口口 |----|
口口口口 |----|


不確定度: 0

最終更新:2013年04月08日 00:17