Concertino in Blue
佐々木博史

BASIC

Level: 4
BPM: 130-155
Notes: 269

BPM: 140
1
口口口口 |----|
口口口口 |----|
口口口口 |----|
口口口口 |----|
2
①口口③ |①---|
口口口口 |②---|
口口口口 |③---|
④口口② |④---|
3
①①口③ |①---|
口口口口 |②---|
口口口口 |③---|
④口口② |④---|
4
①①口③ |①---|
口①口口 |②---|
口口口口 |③---|
④口口② |④---|
5
①①口③ |①---|
①①口口 |②---|
口口口口 |③---|
④口口② |④---|
6
口①①口 |①---|
口②②口 |②---|
口③③口 |③---|
口④④口 |④---|

BPM: 155
7
①口口① |①---|
①口口① |----|
口口口口 |----|
口口口口
8
口③口口 |①---|
②①①② |②---|
②①①② |③---|
口口口口
9
口口①口 |①---|
口口口口 |----|
口口口口 |②---|
口②②口
10
口口口口 |----|
口口口口 |--①-|
①②③口 |②-③-|
口口口口
11
口口口口 |①---|
口②③口 |②---|
口口口① |③---|
口口口口
12
口①②口 |①---|
口口口口 |②---|
口口口口
口口口口

口④口口
③口口③
口口口口 |③---|
口口口口 |④---|
13
口口①口 |①---|
口口口口 |----|
口口口口 |②---|
口②②口
14
口口口口 |----|
口口口口
口口口口
口口口口

BPM: 153

口口口口
口口口口 |--①-|
口③②① |②-③-|
口口口口

BPM: 151
15
②口口② |①--②|
③口口③ |---③|
①口口口
口口口口

口口口口
口口口口
④口口④ |---④|
口口口口
16
口口口口 |----|
口口口口 |----|
口口口口 |----|
口口口口
17
口口口口 |①---|
②①①② |②---|
②①①②
口口口口

BPM: 155

口③口口
口口口口
口口口口 |③---|
口口口口
18
口口①口 |①---|
口口口口 |----|
口口口口 |②---|
口②②口
19
口口口口 |----|
口口口口 |--①-|
①②③口 |②-③-|
口口口口
20
口口口口 |①---|
口②③口 |②---|
口口口① |③---|
口口口口
21
口①②口 |①---|
口口口口 |②---|
口口口口
口口口口

口④口口
③口口③
口口口口 |③---|
口口口口 |④---|
22
口口①口 |①---|
口口口口 |----|
口口口口 |②---|
口②②口
23
口口口口 |----|
口口口口
口口口口
口口口口

BPM: 153

口口口口
口口口口 |--①-|
口③②① |②-③-|
口口口口

BPM: 151
24
②口口② |①--②|
③口口③ |---③|
①口口口
口口口口

口口口口
口口口口
④口口④ |---④|
口口口口
25
口口口口 |----|
口口口口 |----|
口口口口 |----|
口口口口
26
口口口口 |①---|
口①①口 |②---|
口口④③ |③-④-|
口②②口

BPM: 155
27
口口口口 |①---|
口口口口 |----|
口①口口 |----|
口口口口
28
口口口口 |----|
口口口口 |----|
口口口口 |----|
口口口口
29
②口口① |①---|
口口口口 |--②-|
口口口口 |----|
口口口口
30
口口口口 |----|
口口口口 |----|
口口口口 |----|
口口口口
31
口口口口 |①---|
口口口口 |--②-|
①②口口 |----|
口口口口
32
口口口口 |①---|
口口口口 |----|
口口①口 |----|
口口口口
33
口口口口 |①---|
②口口① |--②-|
口口口口 |----|
口口口口
34
口口口口 |①---|
口口口口 |--②-|
口②①口 |----|
口口口口
35
口口口口 |①---|
口口口口 |--②-|
口口口口 |----|
②口口①
36
口口口口 |①---|
口口口口 |--②-|
口②①口 |----|
口口口口
37
口口②① |①---|
口口②① |--②-|
口口口口 |----|
口口口口
38
②①口口 |①---|
②①口口 |--②-|
口口口口 |----|
口口口口
39
口口口口 |①---|
口口口口 |--②-|
口口②① |----|
口口②①
40
口口口口 |①---|
口口口口 |--②-|
②①口口 |----|
②①口口
41
①口口① |①---|
②口口② |--②-|
口口口口 |----|
口口口口
42
口口口口 |①---|
口口口口 |--②-|
①口口① |----|
②口口②
43
口①②口 |①-②-|
口③④口 |③-④-|
口⑤⑥口 |⑤-⑥-|
口口口口
44
口口口口 |①-②-|
口口口口 |③-④-|
⑤口口⑥ |⑤-⑥-|
③①②④
45
口口②② |①---|
①口口口 |--②-|
口口口口 |----|
口口口口
46
①①口口 |①---|
口口口口 |--②-|
口口口口 |----|
口口②②
47
②口口② |①---|
②口口② |--②-|
口口口口 |----|
①①口口
48
口口口口 |①---|
口①①口
口①①口
口口口口

BPM: 153.2-134.7

口口口口
口口口口 |--②-|
口口口口 |----|
②口口②

BPM: 155
49
口口口口 |①---|
①②③口 |②---|
口口口口 |③---|
口口口口
50
口口口口 |①---|
口口口① |----|
口口口口 |----|
口口口口
51
口口口口 |①---|
口口口口 |②---|
口③②① |③---|
口口口口
52
口口口口 |①---|
口口口口 |----|
①口口口 |----|
口口口口
53
①②③口 |①---|
口口口口 |②---|
口口口口 |③---|
口口口口
54
口口口① |①---|
口口口口 |----|
口口口口 |----|
口口口口
55
①口口① |①---|
②口口② |②---|
③口口③ |③---|
口口口口
56
口①①口 |①---|
口②②口 |②---|
口③③口 |③---|
口口口口
57
口口口口 |①---|
①口口① |②---|
②口口② |③---|
③口口③
58
口口口口 |①---|
口①①口 |②---|
口②②口 |③---|
口③③口
59
口口口口 |①---|
①口口① |----|
口口口口 |----|
口口口口
60
口口口口 |----|
口口口口 |----|
口口口口 |----|
口口口口
61
口口口口 |----|
口口口口 |----|
口口口口 |----|
口口口口
62
①口口① |①---|
①口口① |----|
口口口口 |----|
口口口口
63
口③口口 |①---|
②①①② |②---|
②①①② |③---|
口口口口
64
口口①口 |①---|
口口口口 |----|
口口口口 |②---|
口②②口
65
口口口口 |----|
口口口口 |--①-|
①②③口 |②-③-|
口口口口
66
口口口口 |①---|
口②③口 |②---|
口口口① |③---|
口口口口
67
口①②口 |①---|
口口口口 |②---|
口口口口
口口口口

口④口口
③口口③
口口口口 |③---|
口口口口 |④---|
68
口口①口 |①---|
口口口口 |----|
口口口口 |②---|
口②②口

BPM: 155.6-124.7
69
口口口口 |----|
口口口口 |--①-|
口③②① |②-③-|
口口口口

BPM: 121.9
70
②口口② |①--②|
③口口③ |---③|
①口口口
口口口口

口口口口
口口口口
④口口④ |---④|
口口口口
71
口口口口 |----|
口口口口 |----|
口口口口 |----|
口口口口

BPM: 112
72
口口口口 |①---|
口①①口 |②---|
口②②口
口口口口

BPM: 103
口口口口
口口口口
口口口口 |③---|
口③③口
73
口口口口 |①---|
①口口① |----|
①口口①
口口口口

BPM: 117
口口口口
口口口口
口口口口 |----|
口口口口
74
口口口口 |----|
口口口口 |----|
口口口口 |----|
口口口口
75
口口口口 |----|
口口口口 |----|
口口口口 |----|
口口口口
76
口口口口 |----|
口口口口 |----|
口口口口 |----|
口口口口
77
口口口口 |----|
口口口口 |----|
口口口口 |----|
口口口口


不確定度: 0

最終更新:2013年04月29日 17:06