Concertino in Blue
佐々木博史

ADVANCED

Level: 8
BPM: 130-155
Notes: 465

BPM: 140
1
口口口口 |----|
口口口口 |----|
口口口口 |----|
口口口口 |----|
2
①口口③ |①---|
口口口口 |②---|
口口口口 |③---|
④口口② |④---|
3
①①③③ |①---|
口口口口 |②---|
口口口口 |③---|
④④②② |④---|
4
①①③③ |①---|
口①③口 |②---|
口④②口 |③---|
④④②② |④---|
5
①①③③ |①---|
①①③③ |②---|
④④②② |③---|
④④②② |④---|
6
①①④④ |①---|
②②③③ |②---|
③③②② |③---|
④④①① |④---|

BPM: 155
7
口口口口 |①---|
口①口口 |----|
②口①② |②---|
口口口口
8
①①①① |①---|
③④⑤⑥ |②---|
口口口口 |③④⑤⑥|
②②②②
9
①口口② |①---|
口口口口 |②---|
口③④口 |③④-⑤|
⑤口口口
10
口③②① |----|
口口口口 |--①-|
口口口口 |②-③-|
口口口口
11
①口口口 |①-②③|
⑦③②⑥ |-④⑤-|
口⑤④口 |⑥-⑦-|
口口口口
12
口②①口 |①②-③|
⑦⑧⑨⑩ |-④⑤-|
⑥口口③ |⑥---|
口④⑤口 |⑦⑧⑨⑩|
13
①口口② |①---|
口口口口 |②---|
口③④口 |③④-⑤|
⑤口口口
14
口口口口 |----|
口口口口
口口口口
口口口口

BPM: 153

口③②①
口口口口 |--①-|
口口口口 |②-③-|
口口口口

BPM: 151
15
①口口口 |①--②|
口②②口 |---③|
口③③口 |---④|
口④④口
16
口口口口 |----|
口口口口 |----|
口口口口 |----|
口口口口
17
口口口口 |①---|
口口口口 |②---|
①口口②
①口口②

BPM: 155

口口口口
③④⑤⑥
口口口口 |③④⑤⑥|
口口口口
18
①口口② |①---|
口口口口 |②---|
口③④口 |③④-⑤|
⑤口口口
19
口③②① |----|
口口口口 |--①-|
口口口口 |②-③-|
口口口口
20
①口口口 |①-②③|
⑦③②⑥ |-④⑤-|
口⑤④口 |⑥-⑦-|
口口口口
21
口②①口 |①②-③|
⑦⑧⑨⑩ |-④⑤-|
⑥口口③ |⑥---|
口④⑤口 |⑦⑧⑨⑩|
22
①口口② |①---|
口口口口 |②---|
口③④口 |③④-⑤|
⑤口口口
23
口口口口 |----|
口口口口
口口口口
口口口口

BPM: 153

口③②①
口口口口 |--①-|
口口口口 |②-③-|
口口口口

BPM: 151
24
①口口口 |①--②|
口②②口 |---③|
口③③口 |---④|
口④④口
25
口口口口 |----|
口口口口 |----|
口口口口 |----|
口口口口
26
口③口口 |①---|
口口④口 |②---|
①口口② |③-④-|
①口口②

BPM: 155
27
口口口口 |①---|
口口口口 |----|
口口口口 |----|
口①口口
28
口口口口 |①---|
口①①口 |----|
口口口口 |----|
口口口口
29
口①①口 |①---|
②口口③ |-②③④|
④口口⑤ |⑤⑥--|
⑥口口口
30
口口①口 |----|
口口口口 |----|
口口口口 |---①|
口口口口
31
⑦口口⑧ |①②③④|
⑨①②⑩ |⑤⑥⑦⑧|
⑪③④⑫ |⑨⑩⑪⑫|
口⑤⑥口
32
口口口口 |①---|
口口口口 |----|
口口口口 |----|
①口口口
33
口口口口 |①②③④|
⑨⑩⑪⑫ |⑤⑥⑦⑧|
⑤⑥⑦⑧ |⑨⑩⑪⑫|
①②③④
34
①②③④ |①②③④|
口口口口 |----|
口口口口 |----|
口口口口
35
口口口口 |①②③④|
④③②① |⑤⑥⑦⑧|
⑧⑦⑥⑤ |⑨⑩⑪⑫|
⑫⑪⑩⑨
36
④③②① |①②③④|
口口口⑤ |⑤---|
口口口口 |----|
口口口口
37
口口⑦⑧ |①②③④|
⑤⑥口口 |⑤⑥⑦⑧|
⑨⑩③④ |⑨⑩⑪⑫|
①②⑪⑫
38
①②⑪⑫ |①②③④|
⑨⑩③④ |⑤⑥⑦⑧|
口口⑦⑧ |⑨⑩⑪⑫|
⑤⑥口口
39
⑤④口口 |①---|
口口③② |--②③|
①口口口 |④⑤--|
口口口口
40
口口口口 |①---|
③口口③ |--②-|
口口①口 |-③--|
口②②口
41
④②①④ |①--②|
口口口口 |--③-|
口①②口 |-④--|
口③③口
42
口口口口 |①--②|
②口口① |--③-|
①④④② |-④--|
口③③口
43
①口口② |①-②-|
③口口④ |③-④-|
口⑤⑥口 |⑤-⑥-|
口口口口
44
口②②口 |①---|
口口口口 |--②-|
口口口口 |----|
口①口口
45
⑥口口口 |①-②-|
口口口口 |③-④-|
口①①口 |⑤-⑥-|
②③④⑤
46
口口①⑥ |①-②-|
口口口口 |③-④-|
⑤④③② |⑤-⑥-|
口口口口
47
口①口口 |①-②-|
口④④口 |③-④-|
口⑤⑤口 |⑤-⑥-|
③⑥⑥②
48
①口口① |①---|
口口口口
口口口口
口口口口

BPM: 153.2-134.7

口口口口
口口口口 |--②-|
②口口② |----|
口口口口

BPM: 155
49
口①口口 |①---|
口口②口 |②---|
口③口口 |③---|
口口口口
50
②口口② |①--②|
③口口③ |--③-|
④口口④ |-④--|
口口①口
51
口口口口 |①---|
口口口口 |②---|
口③口口 |③---|
①口②①
52
②口口② |①-②-|
③口①③ |-③---④--|
④口口④ |⑤-⑥-|
⑤⑥⑥⑤
53
口①①口 |①---|
口③口口 |②---|
口口②口 |③---|
口口口口
54
②口①② |①----②--|
③口口③ |-③--④-|
④口口④ |⑤-⑥-|
⑤⑥⑥⑤
55
口①①口 |①---|
口②②口 |②---|
口③③口 |③---|
口口口口
56
口③②① |①-②-③-|
④⑤⑥口 |④-⑤-⑥-|
口⑨⑧⑦ |⑦-⑧-⑨-|
口口口口
57
口⑥⑤④ |①-②-③-|
⑦⑧⑨口 |④-⑤-⑥-|
口口口口 |⑦-⑧-⑨-|
①②③口
58
口⑨⑧⑦ |①-②-③-|
口口口口 |④-⑤-⑥-|
口③②① |⑦-⑧-⑨-|
④⑤⑥口
59
口口口口 |①---|
口①①口 |----|
口口口口 |----|
口口口口
60
口口口口 |----|
口口口口 |----|
口口口口 |----|
口口口口
61
⑤口口⑤ |①②③④|
口口口口 |⑤---|
口①②口 |----|
口③④口
62
口口口口 |①---|
口①口口 |----|
②口①② |②---|
口口口口
63
①①①① |①---|
③④⑤⑥ |②---|
口口口口 |③④⑤⑥|
②②②②
64
①口口② |①---|
口口口口 |②---|
口③④口 |③④-⑤|
⑤口口口
65
口③②① |----|
口口口口 |--①-|
口口口口 |②-③-|
口口口口
66
①口口口 |①-②③|
⑦③②⑥ |-④⑤-|
口⑤④口 |⑥-⑦-|
口口口口
67
口②①口 |①②-③|
⑦⑧⑨⑩ |-④⑤-|
⑥口口③ |⑥---|
口④⑤口 |⑦⑧⑨⑩|
68
①口口② |①---|
口口口口 |②---|
口③④口 |③④-⑤|
⑤口口口

BPM: 155.6-124.7
69
口③②① |----|
口口口口 |--①-|
口口口口 |②-③-|
口口口口

BPM: 121.9
70
①口口口 |①--②|
口②②口 |---③|
口③③口 |---④|
口④④口
71
口口口口 |----|
口口口口 |----|
口口口口 |----|
口口口口

BPM: 112
72
口口口口 |①---|
口口口口 |②---|
①口口②
①口口②

BPM: 103
口③口口
口口④口
口口口口 |③-④-|
口口口口
73
口口口口 |①---|
口口口口 |----|
口口口口
口①口口

BPM: 117
口口口口
口口口口
口口口口 |----|
口口口口
74
③口口② |①----②--|
⑤口口⑥ |--③------④--|
口口口口 |--------⑤------------⑥--|
①口口④
75
③口口② |-----①--|
口口口口 |--②---|
口口口口 |-③------|
①口口口
76
口口①口 |①②③---|
口②口口 |----|
口口③口 |----|
口口口口
77
口口口① |----|
口口口口 |-----①--|
口口口口 |----|
口口口口


不確定度: 0

最終更新:2013年04月29日 17:02