Sol Cosine Job 2
DJ TECHNORCH

ADVANCED

Level: 9
BPM: 190-200
Notes: 725

1
口口口口 |----|
口口口口 |----|
口口口口 |----|
口口口口 |----|
2
口口口口 |----|
口口口口 |----|
口口口口 |----|
口口口口 |----|
3
口口口口 |①---|
①口口② |②---|
③口口④ |③---|
口口口口 |④---|
4
口⑤⑥口 |①-②-|
口①口④ |③---|
口口②口 |④--⑤|
⑦③口口 |⑥-⑦-|
5
口口口口 |①---|
②口口③ |②---|
④口口口 |③---|
口口口① |④---|
6
口口口口 |①---|
口④口口 |②---|
口口⑤① |③---|
②口口③ |④-⑤-|
7
口口口② |①-②-|
③口口④ |③-④-|
⑤口口⑥ |⑤-⑥-|
⑦①口⑧ |⑦-⑧-|
8
①①②口 |①-②-|
口③④口 |③-④-|
口⑤⑥口 |⑤-⑥-|
口⑦⑧口 |⑦-⑧-|
9
②口①① |①-②-|
口④③口 |③-④-|
⑥口口⑤ |⑤-⑥-|
口⑧⑦口 |⑦-⑧-|
10
口②①① |①-②-|
④口口③ |③-④-|
口⑥⑤口 |⑤-⑥-|
⑧口口⑦ |⑦-⑧-|
11
口口口口 |①---|
口①①口 |----|
口口口口 |----|
口①①口 |----|
12
口口口① |①-②③|
②③④口 |④-⑤⑥|
口⑤⑥⑦ |⑦⑧⑨⑩|
⑧⑨⑩⑪ |⑪---|
13
⑤⑤①① |①-②③|
⑨②③⑩ |④-⑤-|
口④⑥口 |⑥⑦⑧-|
口⑦⑧口 |⑨-⑩-|
14
⑤口①① |①-②③|
口②③口 |④-⑤-|
⑦④口⑥ |⑥-⑦-|
⑨口口⑧ |⑧-⑨-|
15
⑤⑤①① |①-②③|
⑨②③⑩ |④-⑤-|
口④⑥口 |⑥⑦⑧-|
口⑦⑧口 |⑨-⑩-|
16
⑤⑤①① |①-②③|
口②③口 |④-⑤-|
口④⑥口 |⑥⑦⑧-|
⑨⑦⑧⑩ |⑨-⑩-|
17
口口①① |①-②③|
口②③口 |④-⑤-|
口④口⑤
口口口口

口口口⑨
口口口口
⑥口口口 |⑥-⑦-|
口⑧⑦口 |⑧-⑨-|
18
口口口口 |①---|
①口口① |----|
②口口② |②---|
③口口③ |③---|
19
⑤⑤①① |①-②③|
⑨②③⑩ |④-⑤-|
口④⑥口 |⑥⑦⑧-|
口⑦⑧口 |⑨-⑩-|
20
⑤⑤①① |①-②③|
口②③口 |④-⑤-|
口④⑥口 |⑥⑦⑧-|
⑨⑦⑧⑩ |⑨-⑩-|
21
⑨口①① |①-②③|
口②③口 |④-⑤-|
⑤④口⑥ |⑥-⑦-|
⑦口口⑧ |⑧-⑨-|
22
口①①口 |①---|
②口口② |②---|
口③③口 |③---|
④口口④ |④---|
23
⑤②③① |①-②③|
⑨④⑥⑩ |④-⑤-|
⑤口口① |⑥⑦⑧-|
口⑦⑧口 |⑨-⑩-|
24
⑤②③① |①-②③|
⑨④⑥⑩ |④-⑤-|
⑤口口① |⑥⑦⑧-|
口⑦⑧口 |⑨-⑩-|
25
口②③① |①-②③|
口④口⑨ |④-⑤-|
口⑥⑤① |⑥-⑦-|
⑧口口⑦ |⑧-⑨-|
26
①口口① |①---|
口②②口 |②---|
③口口③ |③---|
④口口④ |④---|
27
⑤⑤①① |①-②③|
⑨②③⑩ |④-⑤-|
口④⑥口 |⑥⑦⑧-|
口⑦⑧口 |⑨-⑩-|
28
口⑨①① |①-②③|
口②③口 |④-⑤-|
⑤④口⑥ |⑥-⑦-|
⑦口口⑧ |⑧-⑨-|
29
口⑧①口 |①-②-|
口②③口 |③-④-|
口④⑤口 |⑤-⑥-|
口⑥⑦口 |⑦-⑧-|
30
①口口① |①---|
口②②口 |②---|
口③③口 |③---|
④口口④ |④---|
31
⑤②③① |①-②③|
⑨④⑥⑩ |④-⑤-|
⑤口口① |⑥⑦⑧-|
口⑦⑧口 |⑨-⑩-|
32
⑤②③① |①-②③|
⑨④⑥⑩ |④-⑤-|
⑤口口① |⑥⑦⑧-|
口⑦⑧口 |⑨-⑩-|
33
⑤②③① |①-②③|
⑨④⑥口 |④-⑤-|
口⑦口① |⑥-⑦-|
口口口⑧ |⑧-⑨-|
34
口②口① |①-②-|
口②口① |③---|
口口口口
③口③口

口口口口
⑦口⑤⑦
⑥④⑤⑥ |④-⑤-|
口④口口 |⑥-⑦-|
35
口①①口 |①---|
口②②口 |----|
口口口口 |----|
口口口口 |--②-|
36
口口口口 |①---|
②口口③ |②-③-|
④①①⑤ |--④-|
⑥口口口 |⑤-⑥-|
37
⑧⑥④② |①-②-|
口口口口 |③-④-|
口口口口 |⑤-⑥-|
⑦⑤③① |⑦-⑧-|
38
口口口口 |①---|
口口①口 |②-③-|
⑤③②④ |--④-|
口口口⑥ |⑤-⑥-|
39
②④⑥⑧ |①-②-|
口口口口 |③-④-|
口口口口 |⑤-⑥-|
①③⑤⑦ |⑦-⑧-|
40
口口口口 |①---|
口②③口 |②-③-|
④①口⑤ |--④-|
⑥口口口 |⑤-⑥-|
41
⑧⑥④② |①-②-|
口口口口 |③-④-|
口口口口 |⑤-⑥-|
⑦⑤③① |⑦-⑧-|
42
口口口口 |①---|
口口口① |②-③-|
⑤③②④ |--④-|
口口口⑥ |⑤-⑥-|
43
②④⑥⑧ |①-②-|
口口口口 |③-④-|
口口口口 |⑤-⑥-|
①③⑤⑦ |⑦-⑧-|
44
口口口口 |①---|
口②③口 |②-③-|
④①口⑤ |--④-|
⑥口口口 |⑤-⑥-|
45
⑧⑥④② |①-②-|
口口口口 |③-④-|
口口口口 |⑤-⑥-|
⑦⑤③① |⑦-⑧-|
46
口口口口 |①-②-|
⑤③②④ |③-④-|
⑦①口⑥ |⑤-⑥-|
口口口⑧ |⑦-⑧-|
47
②④⑥⑧ |①-②-|
口口口口 |③-④-|
口口口口 |⑤-⑥-|
①③⑤⑦ |⑦-⑧-|
48
口④口口 |①---|
③③②② |②-③-|
口①①⑤ |--④-|
⑥口口口 |⑤-⑥-|
49
⑧⑥④② |①-②-|
口口口口 |③-④-|
口口口口 |⑤-⑥-|
⑦⑤③① |⑦-⑧-|
50
口口口④ |①---|
③⑤口② |②-③-|
③①①② |--④-|
口口口⑥ |⑤-⑥-|
51
②④⑥⑧ |①-②-|
口口口口 |③-④-|
口口口口 |⑤-⑥-|
①③⑤⑦ |⑦-⑧-|
52
口口口口 |①---|
口①①口 |----|
口①①口 |----|
口口口口 |----|
53
口口口口 |----|
口口口口 |----|
口口口口 |----|
口口口口 |----|
54
口口口口 |----|
口口口口 |----|
口口口口 |----|
口口口口 |----|
55
口口口口 |----|
口口口口 |----|
口口口口 |----|
口①口口 |--①-|
56
口口口口 |①---|
口口口口 |----|
口口口口 |----|
口口①口 |----|
57
口口口口 |----|
口口口口 |----|
口口口口 |----|
口①口口 |--①-|
58
口口口口 |①---|
口口口口 |----|
口口口口 |----|
口口①口 |----|
59
⑦口口⑧ |①-②-|
⑤口口⑥ |③-④-|
③口口④ |⑤-⑥-|
①口口② |⑦-⑧-|

BPM: 195
60
口①①口 |①---|
口口口口 |--②-|
口口口口 |----|
口②②口 |----|
61
①口口② |①-②-|
③口口④ |③-④-|
⑤口口⑥ |⑤-⑥-|
⑦口口⑧ |⑦-⑧-|
62
口②②口 |①---|
口口口口 |--②-|
口口口口 |----|
口①①口 |----|
63
口⑦⑧口 |①-②-|
口⑤⑥口 |③-④-|
口③④口 |⑤-⑥-|
口①②口 |⑦-⑧-|

BPM: 200
64
①口口① |①---|
口口口口 |--②-|
口口口口 |----|
②口口② |----|
65
口①②口 |①-②-|
口③④口 |③-④-|
口⑤⑥口 |⑤-⑥-|
口⑦⑧口 |⑦-⑧-|
66
②口口② |①---|
口口口口 |--②-|
口口口口 |----|
①口口① |----|
67
口口口口 |①---|
口①①口 |----|
口①①口 |----|
口口口口 |----|
68
①⑤④口 |①--②|
①⑤④② |--③-|
口③⑥② |④--⑤|
口③⑥口 |--⑥-|
69
口口口④ |①--②|
①口口④ |--③-|
①③口② |④---|
口③口② |----|
70
口①①口 |①---|
口①①口 |----|
口口口口 |----|
口口口口 |----|
71
口口口口 |----|
口口口口 |----|
口口口口 |----|
口口口口 |----|
72
口口口口 |①---|
①口口① |----|
①口口① |----|
口口口口 |----|
73
口①口口 |----|
口口②口 |----|
口③口口 |①-②-|
口口④口 |③-④-|
74
口口口② |①---|
口口口口 |----|
口口口口 |--②-|
①口口口 |----|
75
口口口口 |①---|
③口口口 |--②-|
口口口② |--③-|
口①④口 |--④-|
76
口口口口 |①---|
口口口④ |②---|
口③②口 |③---|
口①口口 |④---|
77
②口口① |①---|
④口口④ |②---|
③口口③ |③---|
②口口① |④---|
78
⑤⑤①① |①-②③|
⑨②③⑩ |④-⑤-|
口④⑥口 |⑥⑦⑧-|
口⑦⑧口 |⑨-⑩-|
79
⑤⑤①① |①-②③|
⑨②③⑩ |④-⑤-|
口④⑥口 |⑥⑦⑧-|
口⑦⑧口 |⑨-⑩-|
80
口口①① |①-②③|
口②③口 |④-⑤-|
口④口⑤
口口口口

口口⑨口
口口口口
⑥口口口 |⑥-⑦-|
⑧口口⑦ |⑧-⑨-|
81
①口口① |①---|
②口口② |②---|
口③③口 |③---|
④口口④ |④---|
82
⑤②③① |①-②③|
⑨④⑥⑩ |④-⑤-|
⑤口口① |⑥⑦⑧-|
口⑦⑧口 |⑨-⑩-|
83
⑤②③① |①-②③|
口④⑥口 |④-⑤-|
⑤口口① |⑥⑦⑧-|
⑨⑦⑧⑩ |⑨-⑩-|
84
口②③① |①-②③|
口④⑦⑤ |④-⑤-|
口⑥⑨① |⑥-⑦-|
口⑧口口 |⑧-⑨-|
85
①②口① |①-②-|
②口口④ |③-④-|
⑤口口③ |⑤---|
④口③⑤ |----|
86
⑤⑤①① |①-②③|
⑨②③⑩ |④-⑤-|
口④⑥口 |⑥⑦⑧-|
口⑦⑧口 |⑨-⑩-|
87
⑤⑤①① |①-②③|
口②③口 |④-⑤-|
口④⑥口 |⑥⑦⑧-|
⑨⑦⑧⑩ |⑨-⑩-|
88
口⑧口① |①-②-|
口③⑤口 |③-④-|
④⑥口② |⑤-⑥-|
口口⑦口 |⑦-⑧-|
89
①口口① |①---|
②口口② |②---|
口③③口 |③---|
④口口④ |④---|
90
⑤②③① |①-②③|
⑨④⑥⑩ |④-⑤-|
⑤口口① |⑥⑦⑧-|
口⑦⑧口 |⑨-⑩-|
91
⑤②③① |①-②③|
口④⑥口 |④-⑤-|
⑤口口① |⑥⑦⑧-|
⑨⑦⑧⑩ |⑨-⑩-|
92
口①口口 |①-②-|
⑤口④⑧ |③-④-|
⑦③②⑥ |⑤-⑥-|
口口口口 |⑦-⑧-|
93
④②②④ |①-②-|
⑧⑥⑥⑧ |③-④-|
⑦⑤⑤⑦ |⑤-⑥-|
③①①③ |⑦-⑧-|
94
口①①口 |①---|
口②③口 |----|
口②③口 |②---|
口口口口 |③---|
95
①③口② |----|
口口口口 |①---|
口口口口 |②---|
①③口② |③---|
96
口口①口 |①---|
口口口口 |----|
口口口口 |----|
口口①口 |----|

不確定度: 0

最終更新:2014年05月19日 21:29