CRAZY FOR YOU

BASIC

Level: 2
BPM: 162
Notes: 150

1
口口口口 |----|
口口口口 |----|
口口口口 |----|
口口口口 |----|
2
口口口口 |①---|
口口口口 |----|
口口口口 |②---|
②口口① |----|
3
口口③口 |①---|
口②口口 |②---|
口口①口 |③---|
口口口口 |----|
4
①口口② |①---|
口口口口 |----|
口口口口 |②---|
口口口口 |----|
5
口口口口 |①---|
口①口口 |②---|
口口②口 |③---|
口③口口 |----|
6
口口口口 |①---|
口口口口 |----|
口口口口 |②---|
②口口① |----|
7
口④③口 |①---|
口②口口 |②---|
口口①口 |③---|
口口口口 |④---|
8
口口口口 |①---|
口口①口 |②---|
口②口口 |③---|
口④③口 |④---|
9
口口口口 |----|
口口口口 |----|
口口口口 |----|
口口口口 |----|
10
口口口口 |①---|
口口口口 |----|
口口口口 |②---|
②口口① |----|
11
口口③口 |①---|
口②口口 |②---|
口口①口 |③---|
口口口口 |----|
12
①口口② |①---|
口口口口 |----|
口口口口 |②---|
口口口口 |----|
13
口口口口 |①---|
口①口口 |②---|
口口②口 |③---|
口③口口 |----|
14
口口口口 |①---|
口口口口 |----|
口口口口 |②---|
②口口① |----|
15
口④③口 |①---|
口②口口 |②---|
口口①口 |③---|
口口口口 |④---|
16
口口口口 |①---|
口口①口 |②---|
口②口口 |③---|
口④③口 |④---|
17
口口口口 |----|
口口口口 |----|
口口口口 |----|
口口口口 |----|
18
口口口口 |----|
口口口口 |----|
口口口口 |----|
口口口口 |----|
19
口口口口 |----|
口口口口 |----|
口口口口 |----|
口口口口 |----|
20
口口口口 |----|
口口口口 |----|
口口口口 |----|
口口口口 |----|
21
口口口口 |----|
口口口口 |----|
口口口口 |----|
口口口口 |----|
22
口口口口 |----|
口口口口 |----|
口口口口 |----|
口口口口 |----|
23
口口口口 |----|
口口口口 |----|
口口口口 |----|
口口口口 |----|
24
口口口口 |----|
口口口口 |----|
口口口口 |----|
口口口口 |----|
25
口口口口 |----|
口口口口 |----|
口口口口 |----|
口口口口 |----|
26
口口口口 |①---|
口口口口 |----|
口口口口 |②---|
口①②口 |----|
27
口口口口 |①---|
口口口口 |----|
口①②口 |②---|
口口口口 |----|
28
口口口口 |①---|
口①②口 |----|
口口口口 |②---|
口口口口 |----|
29
口①口口 |①---|
口口口口 |----|
口口口口 |----|
口口口口 |----|
30
②口口① |①---|
口口口口 |----|
口口口口 |②---|
口口口口 |----|
31
口口口口 |①---|
②口口① |----|
口口口口 |②---|
口口口口 |----|
32
口口口口 |①---|
口口口口 |----|
②口口① |②---|
口口口口 |----|
33
口口口口 |①---|
口口口口 |----|
口口口口 |----|
口口口① |----|
34
口口口口 |①---|
口口口口 |----|
口口②口 |②---|
口①口口 |----|
35
口口②口 |①---|
口①口口 |----|
口口口口 |②---|
口口口口 |----|
36
口①口口 |①---|
口口②口 |----|
口口口口 |②---|
口口口口 |----|
37
口口口口 |①---|
口口③口 |----|
口①②口 |②---|
口口口口 |③---|
38
口口①口 |①---|
口③口口 |----|
口②口口 |②---|
口口口口 |③---|
39
口①口② |①---|
口口口口 |----|
口口口口 |②---|
口口口口 |----|
40
①口口口 |①---|
口口口② |----|
口口口口 |②---|
口口口口 |----|
41
口口口口 |①---|
①口口③ |----|
口口口② |②---|
口口口口 |③---|
42
口口口① |①---|
③口口口 |----|
②口口口 |②---|
口口口口 |③---|
43
①口②口 |①---|
口口口口 |----|
口口口口 |②---|
口口口口 |----|
44
口①口口 |①---|
口口②口 |----|
口口口口 |②---|
口口口口 |----|
45
口口口口 |①---|
口①③口 |----|
口口口② |②---|
口口口口 |③---|
46
口口口① |①---|
口③口口 |----|
②口口口 |②---|
口口口口 |③---|
47
①口口口 |①---|
口口口口 |----|
口②②口 |--②-|
口口口口 |----|
48
③②②③ |①---|
口①①口 |--②-|
口口口口 |----|
口口口口 |③---|
49
口口口口 |----|
口①②口 |①---|
口③口口 |②---|
口口口口 |③---|
50
口口口口 |①---|
口口口口 |----|
口口口口 |②---|
②口口① |----|
51
口③③口 |①---|
口②②口 |②---|
口①①口 |③---|
口口口口 |----|
52
①口口② |①---|
口口口口 |----|
口口口口 |②---|
口口口口 |----|
53
口口口口 |①---|
口①①口 |②---|
口②②口 |③---|
口③③口 |----|
54
口口口口 |①---|
口口口口 |----|
口口口口 |②---|
②口口① |----|
55
口④③口 |①---|
口②口口 |②---|
口口①口 |③---|
口口口口 |④---|
56
口口口口 |①---|
口口①口 |②---|
口②口口 |③---|
口④③口 |④---|
57
口口口口 |----|
口口口口 |----|
口口口口 |----|
口口口口 |----|
58
口口口口 |①---|
口口口口 |----|
口口口口 |②---|
②口口① |----|
59
口③③口 |①---|
口②②口 |②---|
口①①口 |③---|
口口口口 |----|
60
①口口② |①---|
口口口口 |----|
口口口口 |②---|
口口口口 |----|
61
口口口口 |①---|
口①①口 |②---|
口②②口 |③---|
口③③口 |----|
62
口口口口 |①---|
口口口口 |----|
口口口口 |②---|
②口口① |----|
63
口④③口 |①---|
口②口口 |②---|
口口①口 |③---|
口口口口 |④---|
64
口口口口 |①---|
口口①口 |②---|
口②口口 |③---|
口④③口 |④---|


不确定度: 1

最終更新:2012年11月08日 04:11