闘いの刻 -jubeatREMIX-
マジックアカデミー管弦楽部×劇団レコード

BASIC

Level: 3
BPM: 174
Notes: 181

1
口口口口 |----|
口口口口 |----|
口口口口 |----|
口口口口 |----|
2
口口口口 |①---|
口口口口 |----|
口①①口 |----|
口口口口 |----|
3
口口②口 |①---|
口①口口 |----|
口口口口 |②---|
口口口口 |----|
4
口口口口 |①---|
口口口口 |----|
口①①口 |----|
口口口口 |----|
5
口②口口 |①---|
口口①口 |----|
口口口口 |②---|
口口口口 |----|
6
口口口口 |①---|
口口口口 |----|
①口口① |----|
口口口口 |----|
7
口口口口 |①---|
口①口口 |----|
口口②口 |②---|
口口口口 |----|
8
口口口口 |①---|
口口口口 |----|
①口口① |----|
口口口口 |----|
9
口口口口 |①---|
口口①口 |----|
口②口口 |②---|
口口口口 |----|
10
口口口口 |①---|
口①①口 |--②-|
口②②口 |----|
口口口口 |----|
11
口口口口 |①---|
①②③④ |②---|
口口口口 |③---|
口口口口 |④---|
12
口口口口 |①---|
口②②口 |--②-|
口①①口 |----|
口口口口 |----|
13
口口口口 |①---|
口口口口 |②---|
④③②① |③---|
口口口口 |④---|
14
口口口口 |①---|
口①①口 |--②-|
口②②口 |----|
口口口口 |----|
15
①②③④ |①---|
口口口口 |②---|
口口口口 |③---|
口口口口 |④---|
16
口口口口 |①---|
口②②口 |--②-|
口①①口 |----|
口口口口 |----|
17
口口口口 |①---|
口口口口 |②---|
口口口口 |③---|
④③②① |④---|
18
口口口口 |①---|
口口②口 |----|
口口①口 |②---|
口口口口 |----|
19
口②①口 |①---|
口口③口 |--②-|
口口口口 |③---|
口口口口 |----|
20
口口口口 |①---|
口②口口 |----|
口①口口 |②---|
口口口口 |----|
21
口①②口 |①---|
口③口口 |--②-|
口口口口 |③---|
口口口口 |----|
22
口口口口 |①---|
口口②① |----|
口口口口 |②---|
口口口口 |----|
23
口口口口 |①---|
口①口口 |--②-|
口口②口 |③---|
口③口口 |----|
24
口口口口 |①---|
①②口口 |----|
口口口口 |②---|
口口口口 |----|
25
口口口口 |①---|
口口①口 |--②-|
口②口口 |③---|
口口③口 |----|
26
口口口口 |①---|
口①①口 |----|
口口口口 |----|
口口口口 |----|
27
口口口口 |①---|
口口口口 |----|
②①①② |②---|
口口口口 |----|
28
口口口口 |①---|
口口口口 |----|
口①①口 |----|
口口口口 |----|
29
口口口口 |①---|
②①①② |----|
口口口口 |②---|
口口口口 |----|
30
口口口口 |①---|
口①①口 |----|
口口口口 |----|
口口口口 |----|
31
口口口口 |①---|
口口口口 |----|
②①①② |②---|
口口口口 |----|
32
口口口口 |①---|
口口口口 |----|
口①①口 |----|
口口口口 |----|
33
口口口口 |①---|
①②③④ |②---|
口口口口 |③---|
口口口口 |④---|
34
口口口口 |①---|
口口口口 |②---|
④③②① |③---|
口口口口 |④---|
35
口口口口 |----|
口口③口 |①---|
口口②口 |②---|
口口①口 |③---|
36
口口①口 |①---|
口②口口 |②-③-|
口口③口 |----|
口口口口 |----|
37
口口口口 |----|
口③口口 |①---|
口②口口 |②---|
口①口口 |③---|
38
口①口口 |①---|
口口②口 |②-③-|
口③口口 |----|
口口口口 |----|
39
口口口口 |----|
口口口口 |①---|
口③口口 |②---|
口①②口 |③---|
40
口④口口 |①---|
口②③口 |②---|
口口①口 |③---|
口口口口 |④---|
41
口口①口 |①---|
口②口口 |--②-|
口口③口 |③---|
口口口口 |----|
42
口④④口 |①---|
口口③口 |②-③-|
口②口口 |--④-|
口①①口 |----|
43
口口口口 |----|
口口口口 |①---|
①②③口 |②---|
口口口口 |③---|
44
口口口口 |①---|
口口②口 |②-③-|
口③口① |----|
口口口口 |----|
45
口口口口 |----|
口口口口 |①---|
口③②① |②---|
口口口口 |③---|
46
口口口口 |①---|
口②口口 |--②-|
①口③口 |③---|
口口口口 |----|
47
口①①口 |①---|
口②②口 |----|
口口口口 |②---|
口口口口 |----|
48
口①口口 |①---|
口②口口 |②---|
口③口口 |③---|
口④口口 |④---|
49
口口口口 |①---|
口口口口 |----|
口口口口 |----|
口口①口 |----|
50
口口口口 |①---|
口口口口 |----|
口①①口 |----|
口口口口 |----|
51
口口口口 |①---|
口①①口 |--②-|
口②②口 |----|
口口口口 |----|
52
口口口口 |①---|
①②③④ |②---|
口口口口 |③---|
口口口口 |④---|
53
口口口口 |①---|
口②②口 |--②-|
口①①口 |----|
口口口口 |----|
54
口口口口 |①---|
口口口口 |②---|
④③②① |③---|
口口口口 |④---|
55
口口口口 |①---|
口①①口 |--②-|
口②②口 |----|
口口口口 |----|
56
①②③④ |①---|
口口口口 |②---|
口口口口 |③---|
口口口口 |④---|
57
口口口口 |①---|
口②②口 |--②-|
口①①口 |----|
口口口口 |----|
58
口口口口 |①---|
口口口口 |②---|
口口口口 |③---|
④③②① |④---|
59
口口口口 |①---|
口口口口 |----|
口①①口 |----|
口口口口 |----|


不確定度: 0

最終更新:2013年03月29日 20:59