闘いの刻 -jubeatREMIX-
マジックアカデミー管弦楽部×劇団レコード

ADVANCED

Level: 6
BPM: 174
Notes: 348

1
口口口口 |----|
口口口口 |----|
口口口口 |----|
口口口① |①---|
2
口⑤口口 |①-②-|
口③④口 |③---|
口口②口 |④---|
口①口口 |⑤---|
3
口口①③ |①---|
②口口口 |--②-|
口口口口 |③---|
口口口口 |----|
4
口口口口 |----|
口③口口 |①---|
口①②口 |②---|
口口口口 |③---|
5
口口口③ |①---|
②口①口 |--②-|
口口口口 |③---|
口口口口 |----|
6
口口口口 |----|
口③口口 |①---|
口②口口 |②---|
①口口口 |③---|
7
口①口口 |①---|
口口②口 |--②-|
口口③口 |③---|
口口口口 |----|
8
口口口① |----|
口口②口 |①---|
口口③口 |②---|
口口口口 |③---|
9
口口口口 |①---|
口②口口 |--②-|
口③口口 |③---|
口口①口 |----|
10
④口③口 |①---|
口③口② |②---|
①②口④ |③---|
口口①口 |④---|
11
口口④口 |①---|
④③②口 |②---|
①口①③ |③---|
②口口口 |④---|
12
②口口口 |①---|
④口①③ |②---|
③①口口 |③---|
口口②④ |④---|
13
②④①口 |①---|
口口口④ |②---|
口①③② |③---|
③口口口 |④---|
14
口口口口 |①---|
②口①口 |②---|
①口口口
口口口②

口口③口
口③口口
④口④口 |③---|
口口口口 |④---|
15
口①④② |①---|
③口口① |②---|
④②口③ |③---|
口口口口 |④---|
16
④口口① |①---|
口②③④ |②---|
口①口② |③---|
③口口口 |④---|
17
口口①口 |①---|
④①③口 |②---|
口②口④ |③---|
③口口② |④---|
18
口口口口 |----|
③口口③ |①---|
②口②口 |②---|
①①口口 |③---|
19
①②③① |①---|
口口口口 |--②-|
口口口口 |③---|
口口口口 |----|
20
口口口口 |----|
③口口③ |①---|
口②口② |②---|
口口①① |③---|
21
①③②① |①---|
口口口口 |--②-|
口口口口 |③---|
口口口口 |----|
22
①①口口 |----|
②口②口 |①---|
③口口③ |②---|
口口口口 |③---|
23
口口口口 |①---|
口口口口 |--②-|
口口口口 |③---|
①②③① |----|
24
口口①① |----|
口②口② |①---|
③口口③ |②---|
口口口口 |③---|
25
口口口口 |①---|
口口口口 |--②-|
口口口口 |③---|
①③②① |----|
26
①口口口 |----|
口②③口 |①---|
①口口口 |②---|
口②③口 |③---|
27
口②②① |①---|
口口口口 |--②-|
口③③① |③---|
口口口口 |----|
28
①口③① |①---|
口④口口 |②-③-|
口②⑤口 |--④-|
口口口口 |--⑤-|
29
口口口口 |----|
口口②口 |--①-|
口①口口 |②---|
口口口口 |----|
30
口口口① |----|
口③②口 |①---|
口口口① |②---|
口③②口 |③---|
31
①②②口 |①---|
口口口口 |--②-|
①③③口 |③---|
口口口口 |----|
32
口口口口 |----|
①③③① |①---|
口②②口 |②---|
口口口口 |③---|
33
口④⑤口 |①-②-|
③口口⑥ |③-④-|
②口口⑦ |⑤-⑥-|
口①⑧口 |⑦-⑧-|
34
①口口⑧ |①-②-|
口②⑦口 |③-④-|
口⑥③口 |⑤-⑥-|
⑤口口④ |⑦-⑧-|
35
②口②口 |----|
口口口口 |①---|
③口口③ |②---|
①①口口 |③---|
36
口②②口 |①---|
口口口口 |②-③-|
口③③口 |----|
口口①① |----|
37
口②口② |----|
口口口口 |①---|
③口口③ |②---|
口口①① |③---|
38
口口口口 |①-②-|
口①②口 |③-④-|
口③④口 |----|
口口口口 |----|
39
口口②② |----|
口口口口 |①---|
口口口口 |②---|
①①③③ |③---|
40
④④口口 |①---|
口口①① |②---|
②②口口 |③---|
③③口口 |④---|
41
口口①① |①---|
③②②③ |--②-|
口④⑤口 |③-④-|
口⑥口口 |⑤-⑥-|
42
②②③口 |①---|
口口③口 |②-③-|
口④口口 |--④-|
口④①口 |----|
43
口口②② |----|
①口口口 |①---|
①口口口 |②---|
口口③③ |③---|
44
口②②口 |①---|
③①口③ |②-③-|
口①口口 |----|
口口口口 |----|
45
②②口口 |----|
口口口① |①---|
口口口① |②---|
③③口口 |③---|
46
口口①① |①---|
③②口口 |--②-|
③②口口 |③---|
口口口口 |----|
47
口①④口 |①---|
②口口② |--②-|
③④①③ |③---|
口口口口 |④---|
48
①口口② |①---|
②③④口 |②---|
口口①③ |③---|
④口口口 |④---|
49
口口②口 |①---|
口③口口 |----|
口①④口 |--②-|
口口口① |③-④-|
50
口口口口 |----|
口口口口 |----|
口口口口 |----|
口口口口 |----|
51
④口③口 |①---|
口③口② |②---|
①②口④ |③---|
口口①口 |④---|
52
口口④口 |①---|
④③②口 |②---|
①口①③ |③---|
②口口口 |④---|
53
②口口口 |①---|
④口①③ |②---|
③①口口 |③---|
口口②④ |④---|
54
②④①口 |①---|
口口口④ |②---|
口①③② |③---|
③口口口 |④---|
55
口口口口 |①---|
②口①口 |②---|
①口口口
口口口②

口口③口
口③口口
④口④口 |③---|
口口口口 |④---|
56
口①④② |①---|
③口口① |②---|
④②口③ |③---|
口口口口 |④---|
57
④口口① |①---|
口②③④ |②---|
口①口② |③---|
③口口口 |④---|
58
口口①口 |①---|
④①③口 |②---|
口②口④ |③---|
③口口② |④---|
59
口口口口 |①---|
口口口口 |----|
口①①口 |----|
口口口口 |----|


不確定度: 0

最終更新:2013年03月29日 20:59