紅蓮の焔
劇団レコードfeat.浅葉リオ

BASIC

Level: 3
BPM: 155
Notes: 189

1
口口口口 |----|
口口口口 |----|
口口口口 |----|
口口口口 |----|
2
①②③口 |----|
口口口口 |①---|
口口口口 |②---|
口口口口 |③---|
3
口口口① |①---|
口口口口 |----|
口③②口 |②---|
口口口口 |③---|
4
口口口口 |①---|
口口口口 |----|
①口口口 |②---|
口口口② |----|
5
口口口口 |①---|
口口口口 |----|
口②③口 |②---|
口①口口 |③---|
6
②口口口 |①---|
口①口口 |----|
口口口口 |②---|
口口口口 |----|
7
口口①口 |①---|
②口口③ |----|
口口口口 |②---|
口口口口 |③---|
8
口口口口 |①---|
口口口口 |②---|
①口口② |③---|
③口口口 |----|
9
口口口口 |①---|
口口口口 |----|
口②②口 |②---|
口①①口 |----|
10
口②②口 |①---|
口①①口 |----|
口口口口 |②---|
口口口口 |----|
11
①口口② |①---|
③口口④ |②---|
口口口口 |③---|
口口口口 |④---|
12
口口口口 |①---|
口口口口 |②---|
①口口② |③---|
③口口口 |----|
13
口口口口 |①---|
口②②口 |----|
口口①口 |②---|
口口口口 |----|
14
口口口口 |①---|
口口口口 |----|
口①口口 |②---|
口②②口 |----|
15
口口口口 |①---|
口②②口 |----|
口口①口 |②---|
口口口口 |----|
16
①口口② |①---|
③口口④ |②---|
口口口口 |③---|
口口口口 |④---|
17
口口口口 |①---|
口②②口 |----|
口口①口 |②---|
口口口口 |----|
18
口口口口 |①---|
口口口口 |----|
口①口口 |②---|
口②②口 |----|
19
口口口口 |①---|
口②②口 |----|
口口①口 |②---|
口口口口 |----|
20
①口口② |①---|
③口口口 |②---|
口口口口 |③---|
口口口口 |----|
21
口口口口 |----|
口③口口 |①---|
口口②口 |②---|
口口口① |③---|
22
①口口② |①---|
口口口口 |----|
口口口口 |②---|
口口口口 |----|
23
口口口口 |①---|
口①②口 |②---|
口③④口 |③---|
口口口口 |④---|
24
口口口口 |①---|
口口口口 |----|
口口口口 |②---|
①口口② |----|
25
口口口口 |①---|
口③④口 |②---|
口①②口 |③---|
口口口口 |④---|
26
①口口② |①---|
口口口口 |----|
口口口口 |②---|
口口口口 |----|
27
口①①口 |①---|
口②②口 |②---|
口③③口 |③---|
口口口口 |----|
28
口口口口 |①---|
①口口① |----|
口口口口 |----|
口口口口 |----|
29
口口口口 |①---|
口口口口 |----|
口口口口 |----|
口①①口 |----|
30
口口口口 |----|
③③口口 |①---|
口口②② |②---|
①①口口 |③---|
31
②口①① |①---|
口口口口 |----|
口口口口 |②---|
口口口口 |----|
32
口口口口 |①---|
口口口口 |②---|
口④③口 |③---|
口②①口 |④---|
33
①①②② |①---|
口口口口 |----|
口口口口 |②---|
口口口口 |----|
34
口口口口 |①---|
①口口② |②---|
③口口④ |③---|
口口口口 |④---|
35
口口口口 |①---|
口口口口 |----|
口口口口 |②---|
①口②口 |----|
36
口口口口 |①---|
口口②口 |----|
口①口口 |②---|
口口口口 |----|
37
②①①② |①---|
口口口口 |----|
口口口口 |②---|
口口口口 |----|
38
口口口口 |----|
口口③③ |①---|
②②口口 |②---|
口口①① |③---|
39
①①口② |①---|
口口口口 |----|
口口口口 |②---|
口口口口 |----|
40
口口口口 |①---|
口①②口 |②---|
口③④口 |③---|
口口口口 |④---|
41
口口口口 |①---|
口口口口 |----|
口口口口 |②---|
①①②② |----|
42
口口口口 |①---|
口口口口 |②---|
①②③④ |③---|
口口口口 |④---|
43
口口口口 |①---|
①口口② |----|
口口口口 |②---|
口口口口 |----|
44
口口口口 |①---|
口①②口 |----|
口口口口 |②---|
口口口口 |----|
45
②①①② |①---|
口口口口 |----|
口口口口 |②---|
口口口口 |----|
46
口口口口 |----|
口口口口 |----|
口口口口 |----|
口口口口 |----|
47
口口口口 |①---|
口口口① |----|
口口②口 |②---|
口口口口 |----|
48
口口口口 |①---|
口口口口 |----|
②口口口 |②---|
口①口口 |----|
49
口③④口 |①---|
口①②口 |②---|
口口口口 |③---|
口口口口 |④---|
50
①口口② |①---|
③口口口 |②---|
口口口口 |③---|
口口口口 |----|
51
口口口口 |①---|
口口口口 |----|
口口口① |②---|
口口②口 |----|
52
口口口口 |①---|
口口口口 |----|
②口口口 |②---|
口①口口 |----|
53
口口口口 |①---|
口口口口 |②---|
口口口口 |③---|
③①②④ |④---|
54
口口口口 |①---|
口③口口 |②---|
口①②口 |③---|
口口口口 |----|
55
④③②① |①---|
口口口口 |②---|
口口口口 |③---|
口口口口 |④---|
56
口口口口 |①---|
①②③口 |②---|
口口口口 |③---|
口口口口 |----|
57
口口口口 |①---|
口口口口 |②---|
④口口③ |③---|
②口口① |④---|
58
口口②口 |①---|
口口口① |----|
口口口口 |②---|
口口口口 |----|
59
口口口口 |①---|
口①口口 |----|
口口②口 |②---|
口口口口 |----|
60
口口口口 |①---|
口口口口 |----|
口口口口 |②---|
口①②口 |----|
61
①口口① |①---|
②口口② |--②-|
③口口③ |----|
口口口口 |--③-|


不確定度: 0

最終更新:2013年03月29日 20:54