紅蓮の焔
劇団レコードfeat.浅葉リオ

ADVANCED

Level: 6
BPM: 155
Notes: 381

1
口口口口 |----|
口口口口 |----|
口口口口 |----|
口口口口 |----|
2
①口口口 |①---|
口口④口 |②---|
口③口口 |③---|
口口②口 |④---|
3
①①口口 |①---|
口口口口 |--②-|
口③②口 |③---|
口口口④ |④---|
4
口口口口 |①---|
口③②口 |--②-|
口口口口 |③---|
①口④口 |④---|
5
口口⑥② |①---|
口⑤口口 |--②-|
口①④口 |③-④-|
口③口口 |⑤-⑥-|
6
①口⑥口 |①---|
口⑤口口 |--②-|
口口④口 |③-④-|
口③②口 |⑤-⑥-|
7
①⑤口口 |①---|
口口④口 |--②-|
口口⑥② |③-④-|
③口口口 |⑤-⑥-|
8
口口口口 |①---|
口③②口 |--②-|
④口口口 |③---|
口①口口 |④---|
9
口⑧⑦① |①-②-|
②口口口 |③-④-|
口⑥口③ |⑤-⑥-|
④口口⑤ |⑦-⑧-|
10
口口口口 |①-②-|
④口①口 |③-④-|
②口⑤口 |⑤---|
口口③口 |----|
11
⑦口口⑥ |--①-|
⑤口口④ |②-③-|
③口口② |④-⑤-|
①口口口 |⑥-⑦-|
12
口②①口 |①-②-|
口④③口 |③-④-|
口口⑤口 |⑤---|
口口口口 |----|
13
口口口口 |--①-|
口口口口 |②-③-|
⑦⑥⑤④ |④-⑤-|
①②③口 |⑥-⑦-|
14
④⑤⑥⑦ |--①-|
口③②① |②-③-|
口口口口 |④-⑤-|
口口口口 |⑥-⑦-|
15
口口口口 |--①-|
⑦⑥⑤④ |②-③-|
①②③口 |④-⑤-|
口口口口 |⑥-⑦-|
16
口①①口 |①---|
口③③口 |②---|
②口口② |③---|
④口口④ |④---|
17
①②③口 |--①-|
⑦⑥⑤④ |②-③-|
口口口口 |④-⑤-|
口口口口 |⑥-⑦-|
18
口口口口 |--①-|
口口口口 |②-③-|
口③②① |④-⑤-|
④⑤⑥⑦ |⑥-⑦-|
19
口口口口 |--①-|
⑦⑥⑤④ |②-③-|
①②③口 |④-⑤-|
口口口口 |⑥-⑦-|
20
④③②① |①-②-|
口口口口 |③-④-|
口口口⑤ |⑤---|
口口口口 |----|
21
口口口口 |----|
①口口① |①---|
②口口② |②---|
③口口③ |③---|
22
⑤口口口 |①-②-|
⑥口口口 |③-④-|
⑦③④口 |⑤-⑥-|
⑧①②口 |⑦-⑧-|
23
口口口③ |①---|
口①①口 |②-③-|
口口口口
口②②口

口④⑤口
口⑥⑦口
口口口口 |④-⑤-|
口口口口 |⑥-⑦-|
24
口⑤口口 |①-②-|
口⑥口口 |③-④-|
③⑦口④ |⑤-⑥-|
①⑧口② |⑦-⑧-|
25
⑤口④⑥ |①-②-|
⑦口③⑧ |③-④-|
口口②口 |⑤-⑥-|
口口①口 |⑦-⑧-|
26
口口口口 |①-②-|
口口口口 |③-④-|
⑦①②⑧ |⑤-⑥-|
⑤③④⑥ |⑦-⑧-|
27
③①①③ |①---|
口口口口 |②---|
口②②口 |③---|
口④口口 |④---|
28
口口③口 |①---|
口①①口 |②---|
口口口口 |----|
口口②口 |③---|
29
口口口口 |①-②-|
①口口口 |③---|
口口口② |----|
③口口口 |----|
30
口口口口 |----|
口②①口 |①---|
口①②口 |②---|
③口口③ |③---|
31
①口口① |①---|
口口②口 |--②③|
口③口口 |④---|
口口④口 |----|
32
口④口口 |--①-|
口口⑤① |②-③-|
②⑥口口 |④-⑤-|
口口⑦③ |⑥-⑦-|
33
③②②③ |①---|
口口口口 |--②-|
口口口口 |③---|
①口口口 |----|
34
④口口口 |--①-|
口口①⑤ |②-③-|
⑥②口口 |④-⑤-|
口口③⑦ |⑥-⑦-|
35
②口口② |①---|
③口口③ |----|
④口口④ |②--③|
①口口口 |--④-|
36
口③③口 |①---|
④口口④ |②---|
口②②口 |③---|
口①①口 |④---|
37
①口口① |①---|
口口口口 |--②-|
②口口③ |③---|
口②③口 |----|
38
口口口口 |----|
口②①口 |①---|
口①②口 |②---|
③口口③ |③---|
39
①口口① |①---|
口口②口 |--②③|
口③口口 |④---|
口口④口 |----|
40
口④口口 |--①-|
口口⑤① |②-③-|
②⑥口口 |④-⑤-|
口口⑦③ |⑥-⑦-|
41
③②②③ |①---|
口口口口 |--②-|
口口口口 |③---|
①口口口 |----|
42
④口口口 |--①-|
口口①⑤ |②-③-|
⑥②口口 |④-⑤-|
口口③⑦ |⑥-⑦-|
43
②口口② |①---|
③口口③ |----|
④口口④ |②--③|
①口口口 |--④-|
44
口③③口 |①---|
④口口④ |②---|
口②②口 |③---|
口①①口 |④---|
45
①口口① |①---|
口口口口 |--②-|
②口口③ |③---|
口②③口 |----|
46
④口口口 |--①-|
口口①⑤ |②-③-|
⑥②口口 |④-⑤-|
口口③⑦ |⑥-⑦-|
47
口口口口 |①---|
口②口口 |--②-|
口④③口 |----|
口①口口 |③-④-|
48
口口口口 |①---|
口口口口 |--②-|
②口口口 |----|
口口①口 |----|
49
口②口口 |①-②-|
⑤④③口 |③-④-|
口⑧⑦⑥ |⑤-⑥-|
口口口① |⑦-⑧-|
50
口口口口 |①-②-|
口口口口 |③-④-|
①口口口 |⑤---|
⑤④③② |----|
51
②口口口 |①-②-|
口⑥口口 |--③-|
口口⑤③ |④-⑤-|
口④①口 |⑥---|
52
口口口口 |①-②-|
②⑥⑤④ |--③-|
口口口口 |④---|
口③①口 |⑤-⑥-|
53
④③②① |①-②-|
⑧⑦⑥⑤ |③-④-|
口口口口 |⑤-⑥-|
口口口口 |⑦-⑧-|
54
口口口口 |①-②-|
口口口口 |③-④-|
④③②① |⑤---|
口口口⑤ |----|
55
口口①口 |①-②-|
口②口口 |③-④-|
⑥口③⑦ |⑤---|
口④口⑤ |⑥-⑦-|
56
口①口口 |①-②-|
⑤口②口 |③-④-|
口③口⑥ |--⑤-|
⑦口④口 |⑥-⑦-|
57
口②①口 |①-②-|
口④③口 |③-④-|
口⑥⑤口 |⑤-⑥-|
口⑧⑦口 |⑦-⑧-|
58
②③④口 |①-②-|
⑧⑦⑥⑤ |③-④-|
口口口口 |⑤-⑥-|
口口口① |⑦-⑧-|
59
③口口口 |①---|
口口口口 |②-③-|
口⑥②① |--④-|
④口口⑤ |⑤-⑥-|
60
口口口④ |①---|
③口⑤② |②-③-|
口⑥①口 |--④-|
口口口口 |⑤-⑥-|
61
⑤①①⑤ |①---|
口口口口 |--②-|
②④④② |--③-|
口③③口 |④-⑤-|


不確定度: 0

最終更新:2013年03月29日 20:55