天上の果て
マジックアカデミー管弦楽部×劇団レコード

BASIC

Level: 4
BPM: 144
Notes: 254

1
①口口① |------|
口口口口 |------|
口口口口 |------|
口口口口 |①-----|
2
口④④口 |①-----|
③③口口 |②-----|
口口②② |③-----|
①①口口 |④-----|
3
①口口① |①-----|
③口口③ |------|
②口口② |②-----|
口口口口 |③-----|
4
口④④口 |①-----|
③③口口 |②-----|
口口②② |③-----|
①①口口 |④-----|
5
①口口① |①-----|
③口口③ |------|
②口口② |②-----|
口口口口 |③-----|
6
口④④口 |①-----|
③③口口 |②-----|
口口②② |③-----|
①①口口 |④-----|
7
①口口① |①-----|
③口口③ |------|
②口口② |②-----|
口口口口 |③-----|
8
口④④口 |①-----|
③③口口 |②-----|
口口②② |③-----|
①①口口 |④-----|
9
①口口① |①-----|
③口口③ |------|
②口口② |②-----|
口口口口 |③-----|
10
口口口口 |①-----|
口口口口 |②-----|
口③口④ |③-----|
①口②口 |④-----|
11
口口口口 |①-----|
①口②口 |②-----|
口口口口
口口口口

口口口口
④口口④
③口口③ |③-----|
口口口口 |④-----|
12
口口口口 |①-----|
口口口口 |②-----|
口③口④ |③-----|
①口②口 |④-----|
13
口口口口 |①-----|
①口②口 |②-----|
口口口口
口口口口

口口口口
④口口④
③口口③ |③-----|
口口口口 |④-----|
14
口口口口 |①-----|
口口口口 |②-----|
口③口④ |③-----|
①口②口 |④-----|
15
口口口口 |①-----|
①口②口 |②-----|
口口口口
口口口口

口口口口
④口口④
③口口③ |③-----|
口口口口 |④-----|
16
口口口口 |①-----|
口口口口 |②-----|
口③口④ |③-----|
①口②口 |④-----|
17
口口口口 |①-----|
①口②口 |②-----|
口口口口
口口口口

口口口口
④口口④
③口口③ |③-----|
口口口口 |④-----|
18
口④②口 |①-----|
口口口口 |②-----|
口口口口 |③-----|
①①③③ |④-----|
19
③口口③ |①-----|
②口口② |②-----|
口①①口 |③-----|
口口口口 |------|
20
口①口口 |①-----|
②口口③ |②-----|
口口④口 |③-----|
口口口口 |④-----|
21
口口口口 |①-----|
口口①口 |②-----|
口②口口 |③-----|
③口口口 |------|
22
口口①口 |①-----|
③口口② |②-----|
口④口口 |③-----|
口口口口 |④-----|
23
口口口口 |①-----|
口①口口 |②-----|
口口②口 |③-----|
口口口③ |------|
24
口口口口 |①-----|
口③口② |②-----|
①口④口 |③-----|
口口口口 |④-----|
25
口口口口 |①-----|
口③③口 |②-----|
口①口口 |③-----|
口口②口 |------|
26
口口口口 |①-----|
②口口② |------|
①口口① |②-----|
口口口口 |------|
27
①口口① |①-----|
口②口口 |②-----|
口口③口 |③-----|
口④口口 |④-----|
28
①口②口 |①-----|
口③口④ |②-----|
口口口口 |③-----|
口口口口 |④-----|
29
口口口口 |①-----|
口口①口 |②-----|
口②口口 |③-----|
③口④口 |④-----|
30
口①口② |①-----|
③口④口 |②-----|
口口口口 |③-----|
口口口口 |④-----|
31
口口口口 |①-----|
口①口口 |②-----|
口口②口 |③-----|
口④口③ |④-----|
32
口口口口 |①-----|
口口②口 |②-----|
①④口口 |③-----|
口口口③ |④-----|
33
口口口口 |①-----|
口③③口 |②-----|
口口②口 |③-----|
口①口口 |------|
34
①口口口 |①-----|
①口口口 |------|
口口口② |②-----|
口口口② |------|
35
②口口② |①-----|
口①①口 |------|
③①①口 |②-----|
口口口口 |③-----|
36
口口口② |①-----|
口口①① |------|
口口口③ |②-----|
口口口口 |③-----|
37
②口口口 |①-----|
①①口口 |------|
口口口口 |②-----|
口口口口 |------|
38
口口①口 |①-----|
口口②口 |------|
口口口口 |②-----|
口口口口 |------|
39
口口口口 |①-----|
口口口口 |------|
口①口口 |②-----|
口②口口 |------|
40
口②口口 |①-----|
①口口② |------|
口口①口 |②-----|
口口口口 |------|
41
口口口口 |①-----|
口口②口 |------|
②口口① |②-----|
口①口口 |------|
42
①②口口 |①-----|
①②口口 |------|
口口口口 |②-----|
口口口口 |------|
43
口口①口 |①-----|
口口口口 |------|
口口①口 |------|
口口口口 |------|
44
口口口口 |①-----|
口④口口 |②-----|
②③口口 |③-----|
①口口口 |④-----|
45
口口口④ |①-----|
口口②③ |②-----|
口口①口 |③-----|
口口口口 |④-----|
46
口口口口 |①-----|
口口④口 |②-----|
口口③② |③-----|
口口口① |④-----|
47
④口口口 |①-----|
③②口口 |②-----|
口①口口 |③-----|
口口口口 |④-----|
48
口口①② |①-----|
口③④口 |②-----|
口口口口 |③-----|
口口口口 |④-----|
49
口口口口 |①-----|
口口口口 |②-----|
口①②口 |③-----|
③④口口 |④-----|
50
①②口口 |①-----|
口③④口 |②-----|
口口口口 |③-----|
口口口口 |④-----|
51
口口口口 |①-----|
口口口口 |②-----|
口①②口 |③-----|
口口③④ |④-----|
52
口口②② |①-----|
口口②② |------|
①①口口 |②-----|
①①口口 |------|
53
口口口口 |①-----|
口口口口 |------|
口②②② |②-----|
①①①口 |------|
54
②②②② |①-----|
①①①口 |------|
口口口口 |②-----|
口口口口 |------|


不確定度: 0

最終更新:2013年03月29日 20:52