天上の果て
マジックアカデミー管弦楽部×劇団レコード

ADVANCED

Level: 7
BPM: 144
Notes: 454

1
口①①口 |------|
口口口口 |------|
口口口口 |------|
口口口口 |①-----|
2
⑧⑨⑩口 |①-②-③-|
①②③口 |④-⑤-⑥-|
④⑤⑥⑦ |⑦-----|
口口口口 |⑧-⑨-⑩-|
3
口口口① |①-----|
②②②② |------|
④④④④ |②---③-|
③③③③ |--④---|
4
①②③口 |①-②-③-|
④⑤⑥⑦ |④-⑤-⑥-|
口口口口 |⑦-----|
⑧⑨⑩口 |⑧-⑨-⑩-|
5
②②②② |①-----|
③③③③ |------|
口口口口 |②-----|
口口口① |③-----|
6
⑧⑨⑩口 |①-②-③-|
口口口口 |④-⑤-⑥-|
④⑤⑥⑦ |⑦-----|
口①②③ |⑧-⑨-⑩-|
7
口口口① |①-----|
口口口口 |------|
②②②② |②-----|
③③③③ |③-----|
8
口口口口 |①-②-③-|
①②③口 |④-⑤-⑥-|
④⑤⑥⑦ |⑦-----|
⑧⑨⑩口 |⑧-⑨-⑩-|
9
③③③③ |①-----|
②②②② |------|
④④④④ |②---③-|
口口口① |--④---|
10
口⑥口口 |①-②-③-|
⑤口③④ |④-⑤-⑥-|
口口口口
①②口口

口口⑦口
口口口口
口⑨⑩口 |⑦-----|
⑧口口口 |⑧-⑨-⑩-|
11
口口④口 |①-②-③-|
口⑤②⑥ |④-⑤-⑥-|
③口口①
口口口口

口口口口
口口口口
⑨⑧⑧⑨ |⑦---⑧-|
口⑦⑦口 |--⑨---|
12
口口③④ |①-②-③-|
①②口口 |④-⑤-⑥-|
口⑥口口
⑤口口口

口⑨⑩口
⑧口口口
口口⑦口 |⑦-----|
口口口口 |⑧-⑨-⑩-|
13
口口口① |①-②-③-|
口②口④ |④-⑤-⑥-|
口⑤③⑥
口口口口

⑧口口⑧
口口口口
口口口口 |⑦-----|
口⑦⑦口 |⑧-----|
14
口⑥口口 |①-②-③-|
⑤口③④ |④-⑤-⑥-|
①②口口
口口口口

口口⑦口
口口口口
口⑨⑩口 |⑦-----|
⑧口口口 |⑧-⑨-⑩-|
15
④口③口 |①-②-③-|
⑥②⑤口 |④-⑤-⑥-|
口口口①
口口口口

口口口口
口口口口
⑧口口⑧ |⑦-----|
口⑦⑦口 |⑧-----|
16
口⑥口口 |①-②-③-|
⑤口③④ |④-⑤-⑥-|
口①②口
口口口口

口口⑦口
口口口口
口⑨⑩口 |⑦-----|
⑧口口口 |⑧-⑨-⑩-|
17
口口④口 |①-②-③-|
口⑤②⑥ |④-⑤-⑥-|
③⑧⑧① |⑦---⑧-|
⑦⑨⑨⑦ |--⑨---|
18
①⑤①① |①-②-③-|
②⑥口口 |④-----|
③⑦⑤⑤ |⑤-⑥-⑦-|
④⑧口口 |⑧-----|
19
①口口口 |①-②-③-|
②口①① |④-----|
③口口口
④口口口

口⑤⑤口
⑥口口口
口口口口 |⑤-----|
口口⑤⑤ |⑥-----|
20
口②口① |①-----|
⑤⑤③口 |--②-③-|
口④口口 |④-----|
口口口口 |⑤-----|
21
口口①① |①-----|
口口口② |------|
口口口口 |------|
口口口口 |②-----|
22
①口②口 |①-----|
口③口口 |--②-③-|
⑤⑤④口 |④-----|
口口口口 |⑤-----|
23
口口口口 |①-----|
口口口② |------|
口口口口 |------|
口口①① |②-----|
24
⑤口口口 |①-----|
口口②⑥ |--②-③-|
①③口口 |④-----|
口口④口 |⑤---⑥-|
25
口口①口 |①-----|
⑥④口口 |--②-③-|
⑤口③口 |④-----|
口②口口 |--⑤-⑥-|
26
①⑤口⑤ |①-----|
⑥口⑥④ |②-③-④-|
口口口③ |⑤-----|
口口②口 |⑥-----|
27
口口口口 |①-----|
口口口口 |②-----|
①①口口
②②口口

口口③③
口口④④
④口口口 |③-----|
口口口口 |④-----|
28
①口口口 |①-----|
口②口口 |--②-③-|
口③口口 |④-----|
⑤④口口 |⑤-----|
29
口口口⑧ |①-----|
①口④⑦ |②-③-④-|
口⑧③⑥ |⑤-⑥-⑦-|
口口②⑤ |⑧-----|
30
③①口口 |①-----|
④⑥口口 |②-③-④-|
⑤口口口 |⑤-----|
②口口口 |⑥-----|
31
⑧口①④ |①-②-③-|
口口②⑤ |④-⑤-⑥-|
口口③⑥ |⑦-----|
口①口⑦ |⑧-----|
32
口口③口 |①-----|
口④口② |--②-③-|
①⑥口口 |④-----|
⑤口口口 |⑤---⑥-|
33
口①③口 |①-----|
口④⑥② |--②-③-|
口⑤口口 |④-----|
口口口口 |--⑤-⑥-|
34
②口口① |①-----|
口③口⑤ |②-③-④-|
口口④口 |⑤-----|
口⑥口口 |⑥-----|
35
口口②② |①-----|
①①③口 |②-----|
口③口③ |③-----|
④口③口 |④-----|
36
口口①① |①-----|
口②口口 |--②-③-|
口③口⑥ |④-----|
口④口⑤ |--⑤-⑥-|
37
①①口② |①-----|
口口口③ |--②-③-|
口口口口
口口口口

⑤口口口
⑥口口口
口口口口 |④-----|
④④口口 |--⑤-⑥-|
38
口④口④ |①-----|
⑤口⑤口 |--②---|
③口③口 |③---④-|
②口①① |--⑤---|
39
口口④④ |①-----|
口口口口 |--②-③-|
②①⑥① |④-----|
③⑤口口 |--⑤-⑥-|
40
口④口口 |①-----|
⑤口口① |②-----|
口口口③ |③---④-|
②口口口 |--⑤---|
41
口口口口 |①---②-|
④②①③ |--③---|
③①②④ |④-----|
口口口口 |------|
42
①⑤⑤① |①-----|
⑥口口⑥ |--②-③-|
口口口口 |④---⑤-|
②③④口 |--⑥---|
43
④⑤⑥口 |①-----|
口③③口 |②-----|
②①①② |③-----|
口口口口 |④-⑤-⑥-|
44
⑥口口⑤ |①---②-|
②⑥④⑦ |③-④-⑤-|
口③⑦① |⑥-----|
口口口口 |⑦-----|
45
口⑦⑤口 |①---②-|
⑦④⑥口 |③-④-⑤-|
③口口⑥ |⑥-----|
口①口② |⑦-----|
46
口⑥⑦⑤ |①---②-|
⑥口④⑦ |③-④-⑤-|
口③口口 |⑥-----|
口②口① |⑦-----|
47
②口口⑤ |①-----|
口③⑤口 |②-③-④-|
口①④口 |⑤-----|
口口口口 |------|
48
⑤口口⑥ |①---②-|
⑦④⑥② |③-④-⑤-|
①⑦③口 |⑥-----|
口口口口 |⑦-----|
49
口⑤⑦口 |①---②-|
口⑥④⑦ |③-④-⑤-|
⑥口口③ |⑥-----|
②口①口 |⑦-----|
50
⑤⑦⑥口 |①---②-|
⑦④口⑥ |③-④-⑤-|
口口③口 |⑥-----|
①口②口 |⑦-----|
51
⑤口口② |①-----|
口⑤③口 |②-③-④-|
口④①口 |⑤-----|
口口口口 |------|
52
⑥⑥口口 |①---②-|
口③口⑤ |③-④-⑤-|
②口④口 |⑥-----|
口口①① |------|
53
口口①④ |①-②---|
①①口② |③---④-|
口口③口
口口口口

口口⑦口
口口口口
⑤⑤⑧⑥ |⑤-⑥---|
口口⑤口 |⑦---⑧-|
54
⑤⑤⑤③ |①-②---|
口口口② |③---④-|
口口口④ |⑤-----|
①①口① |------|


不確定度: 0

最終更新:2013年03月29日 20:52