O JIYA
ASMAT & emi

BASIC

Level: 3
BPM: 151
Notes: 212

1
口口口口 |----|
口口口口 |----|
口口口口 |----|
口口口口 |----|
2
①口②口 |①---|
口口②口 |----|
口口口口 |②---|
口口口口 |----|
3
口口口口 |①---|
口口口口 |----|
口②口① |②---|
口②口口 |----|
4
口口②口 |①---|
①口②口 |----|
口口口口 |②---|
口口口口 |----|
5
①口口① |①---|
②口口② |②---|
③口口③ |③---|
④口口④ |④---|
6
口口口② |①---|
口①口② |----|
口口口口 |②---|
口口口口 |----|
7
口口口口 |①---|
口口口口 |----|
②口①口 |②---|
②口口口 |----|
8
口①口② |①---|
口口口② |----|
口口口口 |②---|
口口口口 |----|
9
口口口口 |①---|
口①①口 |②---|
口②②口 |③---|
口③③口 |----|
10
口口口口 |①---|
①②③口 |②---|
口口口口 |③---|
口口口口 |----|
11
口口口口 |①---|
口口口口 |②---|
口④③口 |③---|
口②①口 |④---|
12
口口口口 |①---|
口③②① |②---|
口口口口 |③---|
口口口口 |----|
13
②①①② |①---|
口口口口 |----|
口口口口 |②---|
口口口口 |----|
14
口口口口 |①---|
①②③口 |②---|
口口口口 |③---|
口口口口 |----|
15
口口口口 |①---|
口口口口 |②---|
口④③口 |③---|
口②①口 |④---|
16
口口口口 |①---|
口③②① |②---|
口口口口 |③---|
口口口口 |----|
17
②①①② |①---|
口口口口 |----|
口口口口 |②---|
口口口口 |----|
18
口口口口 |①---|
口①②口 |②---|
口③口口 |③---|
口口口口 |----|
19
口口口口 |①---|
口口口口 |②---|
③口口④ |③---|
①口口② |④---|
20
口口口口 |①---|
口①②口 |②---|
口③口口 |③---|
口口口口 |----|
21
①口口① |①---|
②口口② |②---|
③口口③ |③---|
④口口④ |④---|
22
口①②口 |①---|
口③口口 |②---|
口口口口 |③---|
口口口口 |----|
23
口口口口 |①---|
口口口口 |②---|
③口口④ |③---|
①口口② |④---|
24
口口口口 |①---|
口①口口 |----|
口口口口 |----|
口口口口 |----|
25
口口口口 |①---|
口①①口 |②---|
口②②口 |③---|
口③③口 |----|
26
口口①① |①---|
口口口② |----|
口口口口 |②---|
口口口口 |----|
27
①①口口 |①---|
②口口口 |----|
口口口口 |②---|
口口口口 |----|
28
口口口口 |①---|
口口①① |----|
口口②口 |②---|
口口口口 |----|
29
口口口口 |①---|
①①口口 |----|
口②口口 |②---|
口口口口 |----|
30
口口口口 |①---|
口口口口 |----|
口口①① |②---|
口口口② |----|
31
口口口口 |①---|
口口口口 |----|
①①口口 |②---|
②口口口 |----|
32
口口口口 |①---|
口口口② |----|
口口①① |②---|
口口口口 |----|
33
口口口口 |①---|
②口口口 |----|
①①口口 |②---|
口口口口 |----|
34
口口口① |①---|
口口②口 |②---|
口口口③ |③---|
口口④口 |④---|
35
④口口口 |①---|
口③口口 |②---|
②口口口 |③---|
口①口口 |④---|
36
口口①口 |①---|
口口口② |②---|
口口③口 |③---|
口口口④ |④---|
37
口口口口 |①---|
①①口口 |----|
口②②口 |②---|
口口口口 |----|
38
口口口① |①---|
口口②口 |②---|
口口口③ |③---|
口口④口 |④---|
39
④口口口 |①---|
口③口口 |②---|
②口口口 |③---|
口①口口 |④---|
40
口口①口 |①---|
口口口② |②---|
口口③口 |③---|
口口口④ |④---|
41
口口口口 |①---|
①①口口 |----|
口②②口 |②---|
口口口口 |----|
42
②口口② |①---|
口口口口 |----|
口口口口 |②---|
①口口① |----|
43
口口口口 |①---|
①②③口 |②---|
口口口口 |③---|
口口口口 |----|
44
口口口口 |①---|
口口口口 |②---|
口④③口 |③---|
口②①口 |④---|
45
口口口口 |①---|
口③②① |②---|
口口口口 |③---|
口口口口 |----|
46
②①①② |①---|
口口口口 |----|
口口口口 |②---|
口口口口 |----|
47
口口口口 |①---|
①②③口 |②---|
口口口口 |③---|
口口口口 |----|
48
口口口口 |①---|
口口口口 |②---|
口④③口 |③---|
口②①口 |④---|
49
口口口口 |①---|
口③②① |②---|
口口口口 |③---|
口口口口 |----|
50
②①①② |①---|
口口口口 |----|
口口口口 |②---|
口口口口 |----|
51
口口口口 |①---|
①口口② |----|
口口口口 |②---|
口口口口 |----|
52
口口口口 |①---|
口口口口 |----|
口①①口 |----|
口口口口 |----|
53
口④③口 |①---|
口②①口 |②---|
口口口口 |③---|
口口口口 |④---|
54
①口口① |①---|
②口口② |②---|
③口口③ |③---|
④口口④ |④---|
55
口口口口 |①---|
口口口口 |----|
口①②口 |②---|
口口口口 |----|
56
口②②口 |①---|
口①①口 |----|
口口口口 |②---|
口口口口 |----|
57
①口口① |①---|
②口口② |----|
口口口口 |②---|
口口口口 |----|
58
口口口口 |①---|
口①①口 |②---|
口②②口 |③---|
口③③口 |----|


不確定度: 0

最終更新:2013年03月29日 20:50